From up on poppy hill 2011 720p60*


image From up on Poppy Hill (コクリコ坂から Kokuriko-zaka kara?, literally “From Coquelicot Hill”) is a 2011 Japanese animated drama film. Created byStudio Ghibli, it is directed by Gorō Miyazaki with the screenplay by Hayao Miyazaki and Keiko Niwa and character design by Katsuya Kondō. The film is based on the serialised Japanese comic of the same name drawn by Chizuru Takahashi and written by Tetsurō Sayama. It was released by Toho in Japan on July 16, 2011, becoming the highest-grossing Japanese film of the year.

Plot

The story is set in 1963 in Yokohama. Kokuriko (from coquelicot, French for Papaver rhoeas) Manor sits on a hill overlooking the harbour. A 16 year-old girl, Umi, li ves in that house. Every morning she raises a signal flag facing the sea. The flag means “I pray for safe voyages”. A 17 year-old boy, Shun, always sees this flag from the sea as he rides a tugboat to school. In preparation for next year’s Tokyo Olympics, people are destroying the old and believing only i n the magnificence of the new. In that time, at a high school in Yokohama, a small struggle occurred. The building of the Culture Club, nicknamed Quartier Latin, is old but full of history and memories. Should it be destroyed or preserved? In the middle of this, Umi and Shun meet. Shun appeals to the students who want to protect the building. Umi suggests a big clean up of the building to show its good parts. Gradually the pair are drawn to each other but they are faced with a sudden trial. They may be siblings. Even so, th ey keep going without running from reality. Then, in the middle of the battle and the aftermath, they come to know how their parents met, loved and lived.

General

Unique ID : 187251023830002112033356096118175794698 (0x8CDF3C4297F2BAB4A714E21F91A7860A)
Complete name : From.up.on.poppy.hill.2011.720p60.bluray.x264-nodlabs.mkv
Format : Matroska
Format version : Version 2
File size : 1.86 GiB
Duration : 1h 30mn
Overall bit rate : 2 927 Kbps
Encoded date : UTC 2012-06-23 10:35:53
Writing application : mkvmerge v5.5.0 (‘Healer’) built on Apr 6 2012 21:43:24
Writing library : libebml v1.2.3 + libmatroska v1.3.0

Video

ID : 1
Format : AVC
Format/Info : Advanced Video Codec
Format profile : High@L4.0
Format settings, CABAC : Yes
Format settings, ReFrames : 6 frames
Muxing mode : Header stripping
Codec ID : V_MPEG4/ISO/AVC
Duration : 1h 30mn
Bit rate : 1 359 Kbps
Width : 1 280 pixels
Height : 688 pixels
Display aspect ratio : 1.85:1
Frame rate : 59.940 fps
Color space : YUV
Chroma subsampling : 4:2:0
Bit depth : 8 bits
Scan type : Progressive
Bits/(Pixel*Frame) : 0.026
Stream size : 883 MiB (46%)
Writing library : x264 core 122 r2184 5c85e0a
Encoding settings : cabac=1 / ref=6 / deblock=1:1:1 / analyse=0x3:0x113 / me=hex / subme=7 / psy=1 / psy_rd=0.40:0.00 / mixed_ref=1 / me_range=16 / chroma_me=1 / trellis=1 / 8x8dct=1 / cqm=0 / deadzone=21,11 / fast_pskip=1 / chroma_qp_offset=-2 / threads=3 / sliced_threads=0 / nr=0 / decimate=1 / interlaced=0 / bluray_compat=0 / constrained_intra=0 / bframes=5 / b_pyramid=2 / b_adapt=1 / b_bias=0 / direct=1 / weightb=1 / open_gop=0 / weightp=2 / keyint=250 / keyint_min=25 / scenecut=40 / intra_refresh=0 / rc_lookahead=40 / rc=crf / mbtree=1 / crf=23.0 / qcomp=0.60 / qpmin=10 / qpmax=51 / qpstep=4 / ip_ratio=1.40 / aq=1:0.60
Language : Japanese
Default : Yes
Forced : No

Audio

ID : 2
Format : DTS
Format/Info : Digital Theater Systems
Muxing mode : Header stripping
Codec ID : A_DTS
Duration : 1h 30mn
Bit rate mode : Constant
Bit rate : 1 510 Kbps
Channel(s) : 5 channels
Channel positions : Front: L C R, Side: L R
Sampling rate : 48.0 KHz
Bit depth : 24 bits
Compression mode : Lossy
Stream size : 981 MiB (52%)
Title : Japanese 1509 kbps
Language : Japanese
Default : Yes
Forced : No

Text #1

ID : 3
Format : UTF-8
Codec ID : S_TEXT/UTF8
Codec ID/Info : UTF-8 Plain Text
Title : English
Language : English
Default : Yes
Forced : No

Text #2

ID : 4
Format : UTF-8
Codec ID : S_TEXT/UTF8
Codec ID/Info : UTF-8 Plain Text
Title : French
Language : French
Default : No
Forced : No

Menu

00:00:00.000 : en:00:00:00.000
00:07:56.142 : en:00:07:56.142
00:15:33.099 : en:00:15:33.099
00:22:18.295 : en:00:22:18.295
00:26:15.199 : en:00:26:15.199
00:35:05.061 : en:00:35:05.061
00:42:06.357 : en:00:42:06.357
00:50:24.396 : en:00:50:24.396
00:58:00.852 : en:00:58:00.852
01:04:00.336 : en:01:04:00.336
01:11:48.888 : en:01:11:48.888
01:17:40.364 : en:01:17:40.364
We are not yet able to translate from English into .

Tags: , , , , , , ,

Leave a Reply

Fill in your details below or click an icon to log in:

WordPress.com Logo

You are commenting using your WordPress.com account. Log Out / Change )

Twitter picture

You are commenting using your Twitter account. Log Out / Change )

Facebook photo

You are commenting using your Facebook account. Log Out / Change )

Google+ photo

You are commenting using your Google+ account. Log Out / Change )

Connecting to %s

%d bloggers like this: