Castle S04E22 720p60


Castle: Undead Again

When Castle and Beckett investigate the murder of a man with human bite marks on his body, Castle’s wild theories start flying. But none are as wild as what their only witness insists happened – a Zombie attack. As the evidence pointing towards an undead assailant piles up, the team plunges into New York’s Zombie subculture to find the killer and bring him in — dead, undead or alive.

Episode number: 4×22
Airdate: Monday April 30th, 2012

Director: Bill Roe
Writer: Christine Boylan
Guest Stars

Arye GrossArye Gross
As M.E. Perlmutter

Recurring
Ryan DoomRyan Doom
As Tom Williams

Tiffany DuPontTiffany DuPont
As Greta Mastroianni

Josh BraatenJosh Braaten
As Kyle Jennings

Brandon KeenerBrandon Keener
As Charlie Coleman

Kevin SymonsKevin Symons
As Mike Matthews

Co-Guest Stars

Kevin SheridanKevin Sheridan
As Paul

Maxwell GlickMaxwell Glick
As Rhett

Ross Kurt LeRoss Kurt Le
As Aleem

Main Cast

Nathan FillionNathan Fillion
As Richard Castle
Stana KaticStana Katic
As Kate Beckett
Susan SullivanSusan Sullivan
As Martha Rodgers
Jon HuertasJon Huertas
As Javier Esposito
Seamus DeverSeamus Dever
As Kevin Ryan
Molly QuinnMolly Quinn
As Alexis Castle

Recap

The episode begins with Castle asking his daughter to join him in their regular game. But Alexis is not in a mood to, as she has bigger decisions to make- choosing her college. She wants to go to a college far from home. She tells her dad that it is time that they holster the guns and play adults. Martha tells castle that Alexis is growing up and that she would like to do her own things. Just then Beckett calls; but he ignores her call. He tells his mom that Beckett and he haven’t been hitting it off well off late; and Martha tells him that it is his fault. Partnering with a rugged cop and showing up at crime scene with a stewardess could definitely be good reasons for this to happen. ..

Read the full recap

Episode Quotes
Richard: Is there a police code for zombie on the loose?

General

Unique ID : 179630922500374493432883993968864921359 (0x8723A84211BD37119B0D83A1CAA8070F)
Complete name : S:\Videos\Seriale\Castle\Castle.2009.S04E22.720p.HDTV.X264-DIMENSION [PublicHD]\Castle.2009.S04E22.720p60.HDTV.X264-DIMENSION.mkv
Format : Matroska
Format version : Version 2
File size : 692 MiB
Duration : 42mn 14s
Overall bit rate : 2 290 Kbps
Encoded date : UTC 2012-05-16 02:46:53
Writing application : mkvmerge v5.4.0 (‘Piper’) built on Mar 10 2012 13:34:39
Writing library : libebml v1.2.3 + libmatroska v1.3.0

Video

ID : 1
Format : AVC
Format/Info : Advanced Video Codec
Format profile : High@L3.2
Format settings, CABAC : Yes
Format settings, ReFrames : 4 frames
Muxing mode : Header stripping
Codec ID : V_MPEG4/ISO/AVC
Duration : 42mn 14s
Bit rate : 1 861 Kbps
Width : 1 280 pixels
Height : 720 pixels
Display aspect ratio : 16:9
Frame rate : 59.940 fps
Color space : YUV
Chroma subsampling : 4:2:0
Bit depth : 8 bits
Scan type : Progressive
Bits/(Pixel*Frame) : 0.034
Stream size : 562 MiB (81%)
Writing library : x264 core 122 r2184 5c85e0a
Encoding settings : cabac=1 / ref=3 / deblock=1:-1:-1 / analyse=0x3:0x113 / me=hex / subme=7 / psy=1 / psy_rd=1.00:0.15 / mixed_ref=1 / me_range=16 / chroma_me=1 / trellis=1 / 8x8dct=1 / cqm=0 / deadzone=21,11 / fast_pskip=1 / chroma_qp_offset=-3 / threads=4 / sliced_threads=0 / nr=0 / decimate=1 / interlaced=0 / bluray_compat=0 / constrained_intra=0 / bframes=3 / b_pyramid=2 / b_adapt=1 / b_bias=0 / direct=1 / weightb=1 / open_gop=0 / weightp=2 / keyint=250 / keyint_min=25 / scenecut=40 / intra_refresh=0 / rc_lookahead=40 / rc=crf / mbtree=1 / crf=20.5 / qcomp=0.60 / qpmin=10 / qpmax=51 / qpstep=4 / ip_ratio=1.40 / aq=1:1.00
Default : Yes
Forced : No

Audio

ID : 2
Format : AC-3
Format/Info : Audio Coding 3
Mode extension : CM (complete main)
Format settings, Endianness : Big
Muxing mode : Header stripping
Codec ID : A_AC3
Duration : 42mn 14s
Bit rate mode : Constant
Bit rate : 384 Kbps
Channel(s) : 6 channels
Channel positions : Front: L C R, Side: L R, LFE
Sampling rate : 48.0 KHz
Bit depth : 16 bits
Compression mode : Lossy
Stream size : 116 MiB (17%)
Default : Yes
Forced : No

Tags: , , , , , , ,

Leave a Reply

Fill in your details below or click an icon to log in:

WordPress.com Logo

You are commenting using your WordPress.com account. Log Out / Change )

Twitter picture

You are commenting using your Twitter account. Log Out / Change )

Facebook photo

You are commenting using your Facebook account. Log Out / Change )

Google+ photo

You are commenting using your Google+ account. Log Out / Change )

Connecting to %s

%d bloggers like this: