Castle S04E21 720p60


Castle: Headhunters

With tensions rising between Castle and Beckett, Castle finds himself a new partner — Detective Ethan Slaughter, a tough and colorful cop from the city’s gang unit. But Castle gets more than he bargained for when Slaughter shows him a grittier side of police work that puts Castle in the line of fire like never before.

Castle.S04E21.720p60.HDTV.X264-DIMENSION.mkv
Size: 803.28 MB

Episode number: 4×21
Airdate: Monday April 16th, 2012

Director: John Terlesky
Writer: Alexi Hawley
.
Guest Stars

Michael DornMichael Dorn
As Dr. Carter Burke

Recurring
Adam BaldwinAdam Baldwin
As Detective Ethan Slaughter

Michael McGradyMichael McGrady
As Brian Reilly

Reynaldo Gallegos (1)Reynaldo Gallegos (1)
As Cesar Vales (as Rey Gallegos)

Anna ZielinskiAnna Zielinski
As Laura Wilson

Co-Guest Stars

Christopher Michael RiveraChristopher Michael Rivera
As Detective Marc Gibson

Clifford McGheeClifford McGhee
As Maxi

Mario Ardila, Jr.Mario Ardila, Jr.
As Gilbert Mendoza

Stefan NiemcZykStefan NiemcZyk
As Shea

Ramona DuBarryRamona DuBarry
As Reporter

Jan M. JanssenJan M. Janssen
As Officer Jenkins

Carter MitchellCarter Mitchell
As Homeless Man

Main Cast

Nathan FillionNathan Fillion
As Richard Castle
Stana KaticStana Katic
As Kate Beckett
Susan SullivanSusan Sullivan
As Martha Rodgers
Jon HuertasJon Huertas
As Javier Esposito
Seamus DeverSeamus Dever
As Kevin Ryan
Molly QuinnMolly Quinn
As Alexis Castle

Recap

The episode begins with an old man finding a dead body of a young guy. When he opens the dead guy’s bag to check for valuables; he finds severed hands inside the bag. He is struck with terror. At the office, Castle is playing with dolls and Martha walks in. She hands over some letters to him. Castle hides them away; they are acceptance letters for Alexis from Stanford and he will show them to her later. Castle is watching the news of the murder on television, when Martha quietly takes those letters from the drawer. Just then he sees a cop on television and wants to meet that guy. Castle visits Kate and asks her if she knows a cop named Slaughter. ..

Read the full recap

Music

General

Unique ID : 246232561924090785200278834025594836122 (0xB93EAA9B1BF6BC048640D6524F9F549A)
Complete name : S:\Videos\Seriale\Castle\Castle.S04E21.720p60.HDTV.X264-DIMENSION.mkv
Format : Matroska
Format version : Version 2
File size : 803 MiB
Duration : 42mn 25s
Overall bit rate : 2 648 Kbps
Encoded date : UTC 2012-04-20 03:55:50
Writing application : mkvmerge v5.4.0 (‘Piper’) built on Mar 10 2012 13:34:39
Writing library : libebml v1.2.3 + libmatroska v1.3.0

Video

ID : 1
Format : AVC
Format/Info : Advanced Video Codec
Format profile : High@L3.2
Format settings, CABAC : Yes
Format settings, ReFrames : 5 frames
Muxing mode : Header stripping
Codec ID : V_MPEG4/ISO/AVC
Duration : 42mn 25s
Bit rate : 2 211 Kbps
Width : 1 280 pixels
Height : 720 pixels
Display aspect ratio : 16:9
Frame rate : 59.940 fps
Color space : YUV
Chroma subsampling : 4:2:0
Bit depth : 8 bits
Scan type : Progressive
Bits/(Pixel*Frame) : 0.040
Stream size : 671 MiB (84%)
Writing library : x264 core 122 r2184 5c85e0a
Encoding settings : cabac=1 / ref=5 / deblock=1:-1:-1 / analyse=0x3:0x113 / me=umh / subme=8 / psy=1 / psy_rd=1.00:0.15 / mixed_ref=1 / me_range=16 / chroma_me=1 / trellis=1 / 8x8dct=1 / cqm=0 / deadzone=21,11 / fast_pskip=1 / chroma_qp_offset=-3 / threads=3 / sliced_threads=0 / nr=0 / decimate=1 / interlaced=0 / bluray_compat=0 / constrained_intra=0 / bframes=3 / b_pyramid=2 / b_adapt=2 / b_bias=0 / direct=3 / weightb=1 / open_gop=0 / weightp=2 / keyint=250 / keyint_min=25 / scenecut=40 / intra_refresh=0 / rc_lookahead=50 / rc=crf / mbtree=1 / crf=20.0 / qcomp=0.60 / qpmin=10 / qpmax=51 / qpstep=4 / ip_ratio=1.40 / aq=1:1.00
Default : Yes
Forced : No

Audio

ID : 2
Format : AC-3
Format/Info : Audio Coding 3
Mode extension : CM (complete main)
Format settings, Endianness : Big
Muxing mode : Header stripping
Codec ID : A_AC3
Duration : 42mn 25s
Bit rate mode : Constant
Bit rate : 384 Kbps
Channel(s) : 6 channels
Channel positions : Front: L C R, Side: L R, LFE
Sampling rate : 48.0 KHz
Bit depth : 16 bits
Compression mode : Lossy
Stream size : 117 MiB (15%)
Default : Yes
Forced : No

Tags: , , , , , , ,

Leave a Reply

Fill in your details below or click an icon to log in:

WordPress.com Logo

You are commenting using your WordPress.com account. Log Out / Change )

Twitter picture

You are commenting using your Twitter account. Log Out / Change )

Facebook photo

You are commenting using your Facebook account. Log Out / Change )

Google+ photo

You are commenting using your Google+ account. Log Out / Change )

Connecting to %s

%d bloggers like this: