Castle S04E20 720p60


Castle: The Limey

A devilishly handsome detective from Scotland Yard, Colin Hunt, teams up with Castle & Beckett to find the person responsible for the murder of his friend’s daughter. Also, Charles Shaughnessy plays Nigel Winthrop, the Deputy General at the British Consulate whom Castle & Beckett suspect is up to more than just ambassadorial balls and diplomatic luncheons. Meanwhile, Lanie convinces Beckett that she needs to make a move on Castle before it is too late.
Castle.S04E20.720p60.HDTV.X264-DIMENSION.mkv or torrent (magnet)
Size: 819.04 MB
Episode number: 4×20
Airdate: Monday April 02nd, 2012

Director: Bill Roe
Writer: Elizabeth Davis (1)
.
Guest Stars

Brett TuckerBrett Tucker
As Colin Hunt

Charles ShaugnessyCharles Shaugnessy
As Nigel Winthrop

Danielle BisuttiDanielle Bisutti
As Claire Panchard

Omar J. DorseyOmar J. Dorsey
As Biggie Slim.

Main Cast

Nathan FillionNathan Fillion
As Richard Castle
Stana KaticStana Katic
As Kate Beckett
Jon HuertasJon Huertas
As Javier Esposito
Seamus DeverSeamus Dever
As Kevin Ryan
Tamala JonesTamala Jones
As Lanie Parish
Penny Johnson JeraldPenny Johnson Jerald
As Captain Victoria Gates

Recap

The scene opens at a motel, with a dead woman lying on the floor and a guy pillaging through her clothes. Just then the woman who cleans the room walks into the room and the guy pushes his way out the door and the woman enters the room and finds the dead body on the floor. Next, Beckett is telling Laine that there is something different about their relationship this time, and Laine tells her that probably Castle is tired of waiting; it’s been 4 years. Beckett thinks he is drifting away from her. Just then Beckett gets a call. She arrives at the scene with Laine. Castle drives in at the scene with a woman. Beckett tells Castle that she feels that she has ran into a bad episode of Miami Vice. ..Read the full recap

General

Unique ID : 212278376262917155687841995996832234480 (0x9FB35400EBF9E7109E5335830AB87BF0)
Complete name : S:\Videos\Seriale\Castle\Castle.S04E20.720p60.HDTV.X264-DIMENSION.mkv
Format : Matroska
Format version : Version 2
File size : 819 MiB
Duration : 42mn 11s
Overall bit rate : 2 714 Kbps
Encoded date : UTC 2012-04-06 04:41:48
Writing application : mkvmerge v5.4.0 (‘Piper’) built on Mar 10 2012 13:34:39
Writing library : libebml v1.2.3 + libmatroska v1.3.0

Video

ID : 1
Format : AVC
Format/Info : Advanced Video Codec
Format profile : High@L3.2
Format settings, CABAC : Yes
Format settings, ReFrames : 4 frames
Muxing mode : Header stripping
Codec ID : V_MPEG4/ISO/AVC
Duration : 42mn 11s
Bit rate : 2 276 Kbps
Width : 1 280 pixels
Height : 720 pixels
Display aspect ratio : 16:9
Frame rate : 59.940 fps
Color space : YUV
Chroma subsampling : 4:2:0
Bit depth : 8 bits
Scan type : Progressive
Bits/(Pixel*Frame) : 0.041
Stream size : 687 MiB (84%)
Writing library : x264 core 120 r2164 da19765
Encoding settings : cabac=1 / ref=3 / deblock=1:-1:-1 / analyse=0x3:0x113 / me=hex / subme=7 / psy=1 / psy_rd=1.00:0.15 / mixed_ref=1 / me_range=16 / chroma_me=1 / trellis=1 / 8x8dct=1 / cqm=0 / deadzone=21,11 / fast_pskip=1 / chroma_qp_offset=-3 / threads=3 / sliced_threads=0 / nr=0 / decimate=1 / interlaced=0 / bluray_compat=0 / constrained_intra=0 / bframes=3 / b_pyramid=2 / b_adapt=1 / b_bias=0 / direct=1 / weightb=1 / open_gop=0 / weightp=2 / keyint=250 / keyint_min=25 / scenecut=40 / intra_refresh=0 / rc_lookahead=40 / rc=crf / mbtree=1 / crf=19.5 / qcomp=0.60 / qpmin=10 / qpmax=51 / qpstep=4 / ip_ratio=1.40 / aq=1:1.00
Default : Yes
Forced : No

Audio

ID : 2
Format : AC-3
Format/Info : Audio Coding 3
Mode extension : CM (complete main)
Muxing mode : Header stripping
Codec ID : A_AC3
Duration : 42mn 11s
Bit rate mode : Constant
Bit rate : 384 Kbps
Channel(s) : 6 channels
Channel positions : Front: L C R, Side: L R, LFE
Sampling rate : 48.0 KHz
Bit depth : 16 bits
Compression mode : Lossy
Stream size : 116 MiB (14%)
Default : Yes
Forced : No

Tags: , , , , , , ,

Leave a Reply

Fill in your details below or click an icon to log in:

WordPress.com Logo

You are commenting using your WordPress.com account. Log Out / Change )

Twitter picture

You are commenting using your Twitter account. Log Out / Change )

Facebook photo

You are commenting using your Facebook account. Log Out / Change )

Google+ photo

You are commenting using your Google+ account. Log Out / Change )

Connecting to %s

%d bloggers like this: