Castle S04E18 720p60



Castle
: A Dance with Death

When Odette Morton, a contestant on the hit competition show “A Night of Dance,” is found murdered in her dressing room, Castle and Beckett must navigate the case’s many twists and twirls without stepping on each other’s toes. But as they delve into Odette’s past, they discover that this reality starlet was harboring a shocking secret that may have led to her death.Source: ABC
Castle.2009.S04E18.720p60.HDTV.X264-DIMENSION.mkv
Size: 759.14 MB
Episode number: 4×18
Airdate: Monday March 19th, 2012

Director: Kevin Hooks
Writer: Moira Kirland Dekker

.
Main Cast

Nathan FillionNathan Fillion
As Richard Castle
Stana KaticStana Katic
As Kate Beckett
Susan SullivanSusan Sullivan
As Martha Rodgers
Jon HuertasJon Huertas
As Javier Esposito
Seamus DeverSeamus Dever
As Kevin Ryan
Tamala JonesTamala Jones
As Lanie Parish
Molly QuinnMolly Quinn
As Alexis Castle
Penny Johnson JeraldPenny Johnson Jerald
As Captain Victoria Gates

Recap

The scene opens with A Night of Dance with host Brad Melville. It’s an elimination dance between Santino and Odette. As they are introduced, Santino takes the stage, but a stage hand discovers Odette’s body in her dressing room. Martha is asking a column writer for a mention in her paper for her acting school. Castle doesn’t think it’s a great idea, because she’s been so critical of her in the past. Lanie is at the scene of the crime. She tells Castle and Beckett that she was shot with a 9mm gun and was shot right at the beginning of the show. Lanie is a fan of the show and Odette was her favorite. When she was young, she wanted to be prima ballerina until she got breasts. Esposito and Ryan are talking to Santino about Odette. ..Read the full recap

General

Unique ID : 225583568222800776901917470448536679731 (0xA9B5D09D4CB20E229641E49658E67533)
Complete name : S:\Videos\Seriale\Castle\Castle.2009.S04E18.720p.HDTV.X264-DIMENSION\Castle.2009.S04E18.720p60.HDTV.X264-DIMENSION.mkv
Format : Matroska
Format version : Version 2
File size : 759 MiB
Duration : 42mn 29s
Overall bit rate : 2 498 Kbps
Encoded date : UTC 2012-03-25 04:35:11
Writing application : mkvmerge v5.3.0 (‘I could have danced’) built on Feb 9 2012 10:38:07
Writing library : libebml v1.2.3 + libmatroska v1.3.0

Video

ID : 1
Format : AVC
Format/Info : Advanced Video Codec
Format profile : High@L3.2
Format settings, CABAC : Yes
Format settings, ReFrames : 4 frames
Muxing mode : Header stripping
Codec ID : V_MPEG4/ISO/AVC
Duration : 42mn 29s
Bit rate : 2 064 Kbps
Width : 1 280 pixels
Height : 720 pixels
Display aspect ratio : 16:9
Frame rate : 59.940 fps
Color space : YUV
Chroma subsampling : 4:2:0
Bit depth : 8 bits
Scan type : Progressive
Bits/(Pixel*Frame) : 0.037
Stream size : 627 MiB (83%)
Writing library : x264 core 120 r2164 da19765
Encoding settings : cabac=1 / ref=3 / deblock=1:-1:-1 / analyse=0x3:0x113 / me=hex / subme=7 / psy=1 / psy_rd=1.00:0.15 / mixed_ref=1 / me_range=16 / chroma_me=1 / trellis=1 / 8x8dct=1 / cqm=0 / deadzone=21,11 / fast_pskip=1 / chroma_qp_offset=-3 / threads=3 / sliced_threads=0 / nr=0 / decimate=1 / interlaced=0 / bluray_compat=0 / constrained_intra=0 / bframes=3 / b_pyramid=2 / b_adapt=1 / b_bias=0 / direct=1 / weightb=1 / open_gop=0 / weightp=2 / keyint=250 / keyint_min=25 / scenecut=40 / intra_refresh=0 / rc_lookahead=40 / rc=crf / mbtree=1 / crf=20.0 / qcomp=0.60 / qpmin=10 / qpmax=51 / qpstep=4 / ip_ratio=1.40 / aq=1:1.00
Default : Yes
Forced : No

Audio

ID : 2
Format : AC-3
Format/Info : Audio Coding 3
Mode extension : CM (complete main)
Muxing mode : Header stripping
Codec ID : A_AC3
Duration : 42mn 29s
Bit rate mode : Constant
Bit rate : 384 Kbps
Channel(s) : 6 channels
Channel positions : Front: L C R, Side: L R, LFE
Sampling rate : 48.0 KHz
Bit depth : 16 bits
Compression mode : Lossy
Stream size : 117 MiB (15%)
Default : Yes
Forced : No

Tags: , , , , , , ,

Leave a Reply

Fill in your details below or click an icon to log in:

WordPress.com Logo

You are commenting using your WordPress.com account. Log Out / Change )

Twitter picture

You are commenting using your Twitter account. Log Out / Change )

Facebook photo

You are commenting using your Facebook account. Log Out / Change )

Google+ photo

You are commenting using your Google+ account. Log Out / Change )

Connecting to %s

%d bloggers like this: