Castle S04E17 720p60


Castle: Once Upon a Crime

When a woman dressed as Red Riding Hood is found dead in the woods with claw marks covering her body, and soon after a murdered Snow White is discovered with a poison apple in her hand, Castle & Beckett find themselves on a Grimm hunt to catch a fairytale killer before he kills again. But nothing is as it seems in a case filled with deceit, betrayal, secrets and murder.
Episode number: 4×17
Airdate: Monday February 27th, 2012
Guest Stars

Meghan MarkleMeghan Markle
As Charlotte Boyd

Taylor KinneyTaylor Kinney
As Darren Thomas

Sarah Jane MorrisSarah Jane Morris
As Leslie Morgan Thomas

June SquibbJune Squibb
As Jamie Isaacson

Jason ThompsonJason Thompson
As Noah Curtis

Gloria GarayuaGloria Garayua
As Kristina Curtis

Co-Guest Stars

Nicholas DownsNicholas Downs
As Marcus O’Neill

Lindsey SantefortLindsey Santefort
As Amy Morgan / Red Riding Hood

Main Cast

Nathan FillionNathan Fillion
As Richard Castle
Stana KaticStana Katic
As Kate Beckett
Susan SullivanSusan Sullivan
As Martha Rodgers
Jon HuertasJon Huertas
As Javier Esposito
Seamus DeverSeamus Dever
As Kevin Ryan
Tamala JonesTamala Jones
As Lanie Parish
Molly QuinnMolly Quinn
As Alexis Castle

Recap

The scene opens with a woman running through the woods in red hooded cloak. She trips and is attacked. Meanwhile, Martha is writing her one woman show. She introduces her playwright, Marcus, and Castle says that his office is his alone. He tells them to get out of his office, but he is interrupted by Beckett. He goes to the scene of the crime and Lainii says that the victim was running from something and she doesn’t know who she is. Castle says that the girl is Little Red Riding Hood from the way she is dressed and says that they are looking for a wolf. Beckett thinks Castle is crazy, but Ryan says that he agrees. Beckett says that it is not the “Big Bad Wolf” who attacked her because in the story, Little Red Riding Hood didn’t die. Castle is impressed by her knowledge of the Brother’s Grimm. ..

Read the full recap

Music

General

Unique ID : 207698214144739317833426236833972807393 (0x9C413893916F62CD933165FC82A6E6E1)
Complete name : S:\Videos\Seriale\Castle\Castle.S04E17.720p60.HDTV.X264-DIMENSION.mkv
Format : Matroska
Format version : Version 2
File size : 843 MiB
Duration : 42mn 59s
Overall bit rate : 2 742 Kbps
Encoded date : UTC 2012-03-03 06:19:36
Writing application : mkvmerge v5.3.0 (‘I could have danced’) built on Feb 9 2012 10:38:07
Writing library : libebml v1.2.3 + libmatroska v1.3.0

Video

ID : 1
Format : AVC
Format/Info : Advanced Video Codec
Format profile : High@L3.2
Format settings, CABAC : Yes
Format settings, ReFrames : 4 frames
Muxing mode : Header stripping
Codec ID : V_MPEG4/ISO/AVC
Duration : 42mn 59s
Bit rate : 2 303 Kbps
Width : 1 280 pixels
Height : 720 pixels
Display aspect ratio : 16:9
Frame rate : 59.940 fps
Color space : YUV
Chroma subsampling : 4:2:0
Bit depth : 8 bits
Scan type : Progressive
Bits/(Pixel*Frame) : 0.042
Stream size : 708 MiB (84%)
Writing library : x264 core 120 r2164 da19765
Encoding settings : cabac=1 / ref=3 / deblock=1:-1:-1 / analyse=0x3:0x113 / me=hex / subme=7 / psy=1 / psy_rd=1.00:0.15 / mixed_ref=1 / me_range=16 / chroma_me=1 / trellis=1 / 8x8dct=1 / cqm=0 / deadzone=21,11 / fast_pskip=1 / chroma_qp_offset=-3 / threads=1 / sliced_threads=0 / nr=0 / decimate=1 / interlaced=0 / bluray_compat=0 / constrained_intra=0 / bframes=3 / b_pyramid=2 / b_adapt=1 / b_bias=0 / direct=1 / weightb=1 / open_gop=0 / weightp=2 / keyint=250 / keyint_min=25 / scenecut=40 / intra_refresh=0 / rc_lookahead=40 / rc=crf / mbtree=1 / crf=19.5 / qcomp=0.60 / qpmin=10 / qpmax=51 / qpstep=4 / ip_ratio=1.40 / aq=1:1.00
Default : Yes
Forced : No

Audio

ID : 2
Format : AC-3
Format/Info : Audio Coding 3
Mode extension : CM (complete main)
Muxing mode : Header stripping
Codec ID : A_AC3
Duration : 42mn 59s
Bit rate mode : Constant
Bit rate : 384 Kbps
Channel(s) : 6 channels
Channel positions : Front: L C R, Side: L R, LFE
Sampling rate : 48.0 KHz
Bit depth : 16 bits
Compression mode : Lossy
Stream size : 118 MiB (14%)
Default : Yes
Forced : No

Tags: , , , , , , ,

Leave a Reply

Fill in your details below or click an icon to log in:

WordPress.com Logo

You are commenting using your WordPress.com account. Log Out / Change )

Twitter picture

You are commenting using your Twitter account. Log Out / Change )

Facebook photo

You are commenting using your Facebook account. Log Out / Change )

Google+ photo

You are commenting using your Google+ account. Log Out / Change )

Connecting to %s

%d bloggers like this: