Top Gear: S18E05


Top Gear: Series 18, Episode 5

Jeremy Clarkson and James May pay tribute to quirky and recently deceased Swedish car maker Saab.Richard Hammond races a rocket-powered flying man against a rally-spec Skoda and Jeremy smokes around the track in the Maserati Gran Turismo MC Stradale and the tyre shredding Mercedes C63 Black. Plus current Doctor Who Matt Smithis the star in the reasonably priced car.

top_gear.18×05.720p60_hdtv_x264-fov.mkv
Size: 1.65 GB
Episode number: 18×5
Airdate: Sunday February 26th, 2012

Director: Phil Churchward
English: The BBC Top Gear presenting team of ,...

Image via Wikipedia

Guest Stars
Matt Smith (3)Matt Smith (3)
As Himself (Star in a Reasonably Priced Car)

Main Cast

Jeremy ClarksonJeremy Clarkson
As Himself
Richard HammondRichard Hammond
As Himself
James MayJames May
As Himself

Recap

<– Previous EpisodeNext Episode –>

General

Unique ID : 174770392580512650792958587209172041608 (0x837B8DA18CE193DDB698AF17A88EBF88)
Complete name : S:\Videos\Seriale\Top Gear\top_gear.18×05.720p60_hdtv_x264-fov.mkv
Format : Matroska
Format version : Version 2
File size : 1.66 GiB
Duration : 59mn 30s
Overall bit rate : 3 988 Kbps
Encoded date : UTC 2012-03-02 01:47:39
Writing application : mkvmerge v5.3.0 (‘I could have danced’) built on Feb 9 2012 10:38:07
Writing library : popcornsux

Video

ID : 1
Format : AVC
Format/Info : Advanced Video Codec
Format profile : High@L3.2
Format settings, CABAC : Yes
Format settings, ReFrames : 4 frames
Muxing mode : Header stripping
Codec ID : V_MPEG4/ISO/AVC
Duration : 59mn 30s
Bit rate : 3 716 Kbps
Width : 1 280 pixels
Height : 720 pixels
Display aspect ratio : 16:9
Frame rate : 59.940 fps
Color space : YUV
Chroma subsampling : 4:2:0
Bit depth : 8 bits
Scan type : Progressive
Bits/(Pixel*Frame) : 0.067
Stream size : 1.54 GiB (93%)
Writing library : x264 core 120 r2164 da19765
Encoding settings : cabac=1 / ref=3 / deblock=1:-1:-1 / analyse=0x3:0x113 / me=hex / subme=7 / psy=1 / psy_rd=1.00:0.15 / mixed_ref=1 / me_range=16 / chroma_me=1 / trellis=1 / 8x8dct=1 / cqm=0 / deadzone=21,11 / fast_pskip=1 / chroma_qp_offset=-3 / threads=3 / sliced_threads=0 / nr=0 / decimate=1 / interlaced=0 / bluray_compat=0 / constrained_intra=0 / bframes=3 / b_pyramid=2 / b_adapt=1 / b_bias=0 / direct=1 / weightb=1 / open_gop=0 / weightp=2 / keyint=250 / keyint_min=25 / scenecut=40 / intra_refresh=0 / rc_lookahead=40 / rc=crf / mbtree=1 / crf=20.5 / qcomp=0.60 / qpmin=10 / qpmax=51 / qpstep=4 / ip_ratio=1.40 / aq=1:1.00
Default : Yes
Forced : No

Audio

ID : 2
Format : AC-3
Format/Info : Audio Coding 3
Mode extension : CM (complete main)
Muxing mode : Header stripping
Codec ID : A_AC3
Duration : 59mn 30s
Bit rate mode : Constant
Bit rate : 192 Kbps
Channel(s) : 2 channels
Channel positions : Front: L R
Sampling rate : 48.0 KHz
Bit depth : 16 bits
Compression mode : Lossy
Stream size : 81.7 MiB (5%)
Default : Yes
Forced : No

 

undefined

Tags: , , , , , , , ,

Leave a Reply

Fill in your details below or click an icon to log in:

WordPress.com Logo

You are commenting using your WordPress.com account. Log Out / Change )

Twitter picture

You are commenting using your Twitter account. Log Out / Change )

Facebook photo

You are commenting using your Facebook account. Log Out / Change )

Google+ photo

You are commenting using your Google+ account. Log Out / Change )

Connecting to %s

%d bloggers like this: