Castle S04E16 720p60


Castle: Linchpin

In the explosive conclusion of a two-part story arc that began last week with “Pandora,” Castle & Beckett race to find the “Linchpin” in order to stop the first domino in a chain of events which will plunge the United States into war.
Episode number: 4×16
Airdate: Monday February 20th, 2012
Special Guest Stars

Jennifer BealsJennifer Beals
As Sophia Turner

Recurring

Guest Stars

Josh StambergJosh Stamberg
As Martin Danberg

Recurring
David Chisum (1)David Chisum (1)
As Thomas Gage

Recurring
Jim Turner (2)Jim Turner (2)
As Janacek Spivey

Cal GibsonCal Gibson
As Chess Player

Co-Guest Stars

Russell EdgeRussell Edge
As Jones

Recurring
Burnadean JonesBurnadean Jones
As Tech #2

Recurring
Lak RanaLak Rana
As Tech #3

Jade CarterJade Carter
As Agent Jack Corrigan

David LimDavid Lim
As Agent Trahn

Steve KramerSteve Kramer
As Super

Main Cast

Nathan FillionNathan Fillion
As Richard Castle
Stana KaticStana Katic
As Kate Beckett
Jon HuertasJon Huertas
As Javier Esposito
Seamus DeverSeamus Dever
As Kevin Ryan
Tamala JonesTamala Jones
As Lanie Parish
Molly QuinnMolly Quinn
As Alexis Castle

Recap

The scene continues with after Blakely is shot dead at the port, and the car in which Beckett and Castle were sitting has been rammed into the water, the car is getting filled up to the roof. Beckett struggles to free herself from the seat belt, and Castle is trying to figure out a way to cut the strap. They have lost everything that could be handy in this situation in the jolt, but Castle is able to find a flashlight. He goes into the rear end of the car, and dips his head into the water trying to find something useful. However, he has to stay too long there, and time is running out. The car keeps sinking, and after a while, Castle is nowhere to be heard from. Beckett tries to force her way out of the jammed doors, but fails. The water level rises, and chokes her unconscious. ..

Read the full recap

General

Unique ID : 250974825825348943120770288405954038300 (0xBCCFFE449CC19179984DA231A5BE0A1C)
Complete name : S:\Videos\Seriale\Castle\Castle.S04E16.720p60.HDTV.X264-DIMENSION.mkv
Format : Matroska
Format version : Version 2
File size : 987 MiB
Duration : 43mn 24s
Overall bit rate : 3 178 Kbps
Encoded date : UTC 2012-02-23 03:54:46
Writing application : mkvmerge v5.3.0 (‘I could have danced’) built on Feb 9 2012 10:38:07
Writing library : libebml v1.2.3 + libmatroska v1.3.0

Video

ID : 1
Format : AVC
Format/Info : Advanced Video Codec
Format profile : High@L3.2
Format settings, CABAC : Yes
Format settings, ReFrames : 4 frames
Muxing mode : Header stripping
Codec ID : V_MPEG4/ISO/AVC
Duration : 43mn 24s
Bit rate : 2 730 Kbps
Width : 1 280 pixels
Height : 720 pixels
Display aspect ratio : 16:9
Frame rate : 59.940 fps
Color space : YUV
Chroma subsampling : 4:2:0
Bit depth : 8 bits
Scan type : Progressive
Bits/(Pixel*Frame) : 0.049
Stream size : 848 MiB (86%)
Writing library : x264 core 120 r2164 da19765
Encoding settings : cabac=1 / ref=3 / deblock=1:-1:-1 / analyse=0x3:0x113 / me=hex / subme=7 / psy=1 / psy_rd=1.00:0.15 / mixed_ref=1 / me_range=16 / chroma_me=1 / trellis=1 / 8x8dct=1 / cqm=0 / deadzone=21,11 / fast_pskip=1 / chroma_qp_offset=-3 / threads=3 / sliced_threads=0 / nr=0 / decimate=1 / interlaced=0 / bluray_compat=0 / constrained_intra=0 / bframes=3 / b_pyramid=2 / b_adapt=1 / b_bias=0 / direct=1 / weightb=1 / open_gop=0 / weightp=2 / keyint=250 / keyint_min=25 / scenecut=40 / intra_refresh=0 / rc_lookahead=40 / rc=crf / mbtree=1 / crf=18.5 / qcomp=0.60 / qpmin=10 / qpmax=51 / qpstep=4 / ip_ratio=1.40 / aq=1:1.00
Default : Yes
Forced : No

Audio

ID : 2
Format : AC-3
Format/Info : Audio Coding 3
Mode extension : CM (complete main)
Muxing mode : Header stripping
Codec ID : A_AC3
Duration : 43mn 24s
Bit rate mode : Constant
Bit rate : 384 Kbps
Channel(s) : 6 channels
Channel positions : Front: L C R, Side: L R, LFE
Sampling rate : 48.0 KHz
Bit depth : 16 bits
Compression mode : Lossy
Stream size : 119 MiB (12%)
Default : Yes
Forced : No

Tags: , , , , , , ,

Leave a Reply

Fill in your details below or click an icon to log in:

WordPress.com Logo

You are commenting using your WordPress.com account. Log Out / Change )

Twitter picture

You are commenting using your Twitter account. Log Out / Change )

Facebook photo

You are commenting using your Facebook account. Log Out / Change )

Google+ photo

You are commenting using your Google+ account. Log Out / Change )

Connecting to %s

%d bloggers like this: