Castle S04E15 720p60


Castle: Pandora

In the first episode of a two-part “Castle” event, Castle and Beckett pursue a ruthless killer who, they discover, is part of a sinister, international conspiracy. Castle and Beckett are joined on the case by Sophia Turner (guest star Jennifer Beals), a smart, sexy CIA operative who has a complicated past with Castle. Josh Stamberg also guest stars as Martin Danberg, an intelligence officer.
Episode number: 4×15
Airdate: Monday February 13th, 2012
Special Guest Stars

Jennifer BealsJennifer Beals
As Sophia Turner

Guest Stars

Josh StambergJosh Stamberg
As Martin Danberg

David Chisum (1)David Chisum (1)
As Thomas Gage

Timothy CarhartTimothy Carhart
As Dr. Nelson Blakely

Julia WhelanJulia Whelan
As Tina Massey

Bruno OliverBruno Oliver
As Tracy’s Boss

Co-Guest Stars

Russell EdgeRussell Edge
As Jones

Dave ShalanskyDave Shalansky
As Tech #1

Burnadean JonesBurnadean Jones
As Tech #2

Main Cast

Nathan FillionNathan Fillion
As Richard Castle
Stana KaticStana Katic
As Kate Beckett
Susan SullivanSusan Sullivan
As Martha Rodgers
Jon HuertasJon Huertas
As Javier Esposito
Seamus DeverSeamus Dever
As Kevin Ryan
Tamala JonesTamala Jones
As Lanie Parish
Molly QuinnMolly Quinn
As Alexis Castle
Penny Johnson JeraldPenny Johnson Jerald
As Captain Victoria Gates

Recap

The scene opens with a fight going on with distinct sounds inside a room. There are crashes and sounds of gun fire, after which a man is pushed out of a window. Meanwhile, Castle is busy in the kitchen, and happy that his mother’s students used her studio, and not the living room for rehearsing the boxing sequence in Who’s Afraid of Virginia Woolf? Martha is excited to find Castle making her favorite pasta, but Castle intends to share it with Alexis as well. Martha lets on she is not home, and has taken up an internship. Yet another one? And what sort of an internship could it be that keeps her out at 9 o clock? It is the type that Martha has personally approved. That is no reason for Castle to be satisfied. ..

Read the full recap

General
Unique ID : 198595948317272444027947608175836769504 (0x95683039012ED890BD706AB7A00DACE0)
Complete name : S:\Videos\Seriale\Castle\Castle.S04E13.720p60.WEB.DL.DD5.1.H.264.NFHD.mkv
Format : Matroska
Format version : Version 2
File size : 898 MiB
Duration : 43mn 2s
Overall bit rate : 2 918 Kbps
Movie name : Castle.S04E13.720p.WEB.DL.DD5.1.H.264.NFHD.mkv 4139
Encoded date : UTC 2012-02-18 16:51:19
Writing application : mkvmerge v5.3.0 (‘I could have danced’) built on Feb 9 2012 10:38:07
Writing library : libebml v1.2.3 + libmatroska v1.3.0

Video
ID : 1
Format : AVC
Format/Info : Advanced Video Codec
Format profile : High@L3.2
Format settings, CABAC : Yes
Format settings, ReFrames : 4 frames
Muxing mode : Header stripping
Codec ID : V_MPEG4/ISO/AVC
Duration : 43mn 2s
Bit rate : 2 476 Kbps
Width : 1 280 pixels
Height : 720 pixels
Display aspect ratio : 16:9
Frame rate : 59.940 fps
Color space : YUV
Chroma subsampling : 4:2:0
Bit depth : 8 bits
Scan type : Progressive
Bits/(Pixel*Frame) : 0.045
Stream size : 762 MiB (85%)
Writing library : x264 core 120 r2164 da19765
Encoding settings : cabac=1 / ref=3 / deblock=1:-1:-1 / analyse=0x3:0x113 / me=hex / subme=7 / psy=1 / psy_rd=1.00:0.15 / mixed_ref=1 / me_range=16 / chroma_me=1 / trellis=1 / 8x8dct=1 / cqm=0 / deadzone=21,11 / fast_pskip=1 / chroma_qp_offset=-3 / threads=3 / sliced_threads=0 / nr=0 / decimate=1 / interlaced=0 / bluray_compat=0 / constrained_intra=0 / bframes=3 / b_pyramid=2 / b_adapt=1 / b_bias=0 / direct=1 / weightb=1 / open_gop=0 / weightp=2 / keyint=250 / keyint_min=25 / scenecut=40 / intra_refresh=0 / rc_lookahead=40 / rc=crf / mbtree=1 / crf=19.5 / qcomp=0.60 / qpmin=10 / qpmax=51 / qpstep=4 / ip_ratio=1.40 / aq=1:1.00
Default : Yes
Forced : No

Audio
ID : 2
Format : AC-3
Format/Info : Audio Coding 3
Mode extension : CM (complete main)
Muxing mode : Header stripping
Codec ID : A_AC3
Duration : 43mn 2s
Bit rate mode : Constant
Bit rate : 384 Kbps
Channel(s) : 6 channels
Channel positions : Front: L C R, Side: L R, LFE
Sampling rate : 48.0 KHz
Bit depth : 16 bits
Compression mode : Lossy
Stream size : 118 MiB (13%)
Title : Dolby Digital 5.1 @ 384 kbps
Language : English
Default : Yes
Forced : No

 

Tags: , , , , , , ,

Leave a Reply

Fill in your details below or click an icon to log in:

WordPress.com Logo

You are commenting using your WordPress.com account. Log Out / Change )

Twitter picture

You are commenting using your Twitter account. Log Out / Change )

Facebook photo

You are commenting using your Facebook account. Log Out / Change )

Google+ photo

You are commenting using your Google+ account. Log Out / Change )

Connecting to %s

%d bloggers like this: