Top Gear: S18E01


Top Gear: Series 18, Episode 1

Jeremy Clarkson, Richard Hammond and James May head to Italy for a supercar shootout featuring the Lamborghini Aventador, the McLaren MP4-12C and the Noble M600.Their trip starts at the incredible Nardo test track, a facility so massive it is visible from space, before heading north for a nerve wracking drive around the centre of Rome. The journey concludes at the legendary Imola circuit, a track challenging enough to have embarrassed many an F1 driver, with a timed challenge against the incredible skills of the Stig‘s Italian cousin.Back in the studio, the presenters look forward to some car highlights of 2012 and another top celebrity guest takes the wheel of the Reasonably Priced Car.

Episode number: 18×1
Airdate: Sunday January 29th, 2012

Director: Phil Churchward
Guest Stars

Main Cast

Jeremy ClarksonJeremy Clarkson
As Himself
Richard HammondRichard Hammond
As Himself
James MayJames May
As Himself

Recap

General

Unique ID : 250769626034265984627388426636444652601 (0xBCA87923200DD037A354221770815439)
Complete name : S:\Videos\Seriale\Top Gear\Top.gear.S18x01.720p60_hdtv_x264-fov.mkv
Format : Matroska
Format version : Version 2
File size : 1.34 GiB
Duration : 1h 2mn
Overall bit rate : 3 072 Kbps
Encoded date : UTC 2012-02-18 00:35:26
Writing application : mkvmerge v5.3.0 (‘I could have danced’) built on Feb 9 2012 10:38:07
Writing library : popcornsux

Video

ID : 2
Format : AVC
Format/Info : Advanced Video Codec
Format profile : High@L5.1
Format settings, CABAC : Yes
Format settings, ReFrames : 6 frames
Codec ID : V_MPEG4/ISO/AVC
Duration : 1h 2mn
Bit rate : 2 819 Kbps
Width : 1 280 pixels
Height : 720 pixels
Display aspect ratio : 16:9
Frame rate : 59.940 fps
Color space : YUV
Chroma subsampling : 4:2:0
Bit depth : 8 bits
Scan type : Progressive
Bits/(Pixel*Frame) : 0.051
Stream size : 1.23 GiB (92%)
Writing library : x264 core 120 r2164 da19765
Encoding settings : cabac=1 / ref=6 / deblock=1:1:1 / analyse=0x3:0x113 / me=hex / subme=7 / psy=1 / psy_rd=0.40:0.00 / mixed_ref=1 / me_range=16 / chroma_me=1 / trellis=1 / 8x8dct=1 / cqm=0 / deadzone=21,11 / fast_pskip=1 / chroma_qp_offset=-2 / threads=6 / sliced_threads=0 / nr=0 / decimate=1 / interlaced=0 / bluray_compat=0 / constrained_intra=0 / bframes=5 / b_pyramid=2 / b_adapt=2 / b_bias=0 / direct=1 / weightb=1 / open_gop=0 / weightp=2 / keyint=599 / keyint_min=59 / scenecut=60 / intra_refresh=0 / rc_lookahead=80 / rc=crf / mbtree=1 / crf=21.0 / qcomp=0.60 / qpmin=10 / qpmax=51 / qpstep=4 / ip_ratio=1.40 / aq=1:0.60
Language : English
Default : Yes
Forced : No

Audio

ID : 1
Format : AC-3
Format/Info : Audio Coding 3
Mode extension : CM (complete main)
Codec ID : A_AC3
Duration : 1h 2mn
Bit rate mode : Constant
Bit rate : 192 Kbps
Channel(s) : 2 channels
Channel positions : Front: L R
Sampling rate : 48.0 KHz
Bit depth : 16 bits
Compression mode : Lossy
Stream size : 85.8 MiB (6%)
Default : Yes
Forced : No

Tags: , , , , , , ,

Leave a Reply

Fill in your details below or click an icon to log in:

WordPress.com Logo

You are commenting using your WordPress.com account. Log Out / Change )

Twitter picture

You are commenting using your Twitter account. Log Out / Change )

Facebook photo

You are commenting using your Facebook account. Log Out / Change )

Google+ photo

You are commenting using your Google+ account. Log Out / Change )

Connecting to %s

%d bloggers like this: