Dexter S06E12 720p60


Dexter: This Is the Way the World Ends

Dexter and Homicide race against a lunar eclipse to catch the Doomsday Killers before their final gruesome act; Debra struggles with a new emotional reality.
Episode number: 6×12
Airdate: Sunday December 18th, 2011
Director: John Dahl
Writer: Scott BuckWendy West
Special Guest Stars

Colin HanksColin Hanks
As Travis Marshall

Recurring

Guest Stars

Aimee GarciaAimee Garcia
As Jamie Batista

Recurring
Billy Brown (3)Billy Brown (3)
As Mike Anderson

Recurring
Josh Cooke (1)Josh Cooke (1)
As Louis Greene

Recurring
Rya KihlstedtRya Kihlstedt
As Dr. Michelle Ross

Recurring

Co-Guest Stars

Evan George KruntchevEvan George Kruntchev
As Harrison (Harrison Morgan)

Recurring
Luke Andrew KruntchevLuke Andrew Kruntchev
As Harrison (Harrison Morgan)

Recurring
Elizabeth TobiasElizabeth Tobias
As Sister Daniels

Recurring
Nicole PettisNicole Pettis
As Reporter

Recurring
Cory BlevinsCory Blevins
As Uniform Cop

Al VicenteAl Vicente
As Alberto

Carlos Moreno Jr.Carlos Moreno Jr.
As Ricardo

Jack Axelrod (1)Jack Axelrod (1)
As Nelson

Tiffany PulvinoTiffany Pulvino
As Daniela

Avery PhillipsAvery Phillips
As Little Girl

Main Cast

Michael C. HallMichael C. Hall
As Dexter Morgan
Jennifer CarpenterJennifer Carpenter
As Det./Lt. Debra Morgan
Desmond HarringtonDesmond Harrington
As Joey Quinn
C. S. LeeC. S. Lee
As Vince Masuka
Lauren VelezLauren Velez
As Lt./Capt. Maria LaGuerta
David ZayasDavid Zayas
As Sgt. Angel Batista

Recap

Dexter floats in the ocean overnight until he gets picked up by a boat full of illegals. While he is floating, he considers his life and wonders if the world would be a better place without him. He says he’s just thinking about how he’ll miss watching his son grow up…

Read the full recap

General

Unique ID : 230816703001683590782397460168811714553 (0xADA5AE145212E4ECAAAA537A899B97F9)
Complete name : S:\Videos\Seriale\Dexter\Dexter.S06E12.720p60.HDTV.X264.DIMENSION.mkv
Format : Matroska
Format version : Version 2
File size : 1.33 GiB
Duration : 51mn 15s
Overall bit rate : 3 709 Kbps
Movie name : Dexter.S06E12.720p.HDTV.X264.DIMENSION.mkv 10118
Encoded date : UTC 2012-02-10 05:58:35
Writing application : mkvmerge v5.0.1 (‘Es ist Sommer’) built on Oct 9 2011 11:55:43
Writing library : libebml v1.2.2 + libmatroska v1.3.0

Video

ID : 1
Format : AVC
Format/Info : Advanced Video Codec
Format profile : High@L3.2
Format settings, CABAC : Yes
Format settings, ReFrames : 4 frames
Muxing mode : Header stripping
Codec ID : V_MPEG4/ISO/AVC
Duration : 51mn 15s
Bit rate : 3 252 Kbps
Width : 1 280 pixels
Height : 720 pixels
Display aspect ratio : 16:9
Frame rate : 59.940 fps
Color space : YUV
Chroma subsampling : 4:2:0
Bit depth : 8 bits
Scan type : Progressive
Bits/(Pixel*Frame) : 0.059
Stream size : 1.16 GiB (88%)
Writing library : x264 core 116 r2074 2641b9e
Encoding settings : cabac=1 / ref=3 / deblock=1:-1:-1 / analyse=0x3:0x113 / me=hex / subme=7 / psy=1 / psy_rd=1.00:0.15 / mixed_ref=1 / me_range=16 / chroma_me=1 / trellis=1 / 8x8dct=1 / cqm=0 / deadzone=21,11 / fast_pskip=1 / chroma_qp_offset=-3 / threads=3 / sliced_threads=0 / nr=0 / decimate=1 / interlaced=0 / bluray_compat=0 / constrained_intra=0 / bframes=3 / b_pyramid=2 / b_adapt=1 / b_bias=0 / direct=1 / weightb=1 / open_gop=0 / weightp=2 / keyint=250 / keyint_min=25 / scenecut=40 / intra_refresh=0 / rc_lookahead=40 / rc=crf / mbtree=1 / crf=18.5 / qcomp=0.60 / qpmin=10 / qpmax=51 / qpstep=4 / ip_ratio=1.40 / aq=1:1.00
Default : Yes
Forced : No

Audio

ID : 2
Format : AC-3
Format/Info : Audio Coding 3
Mode extension : CM (complete main)
Muxing mode : Header stripping
Codec ID : A_AC3
Duration : 51mn 15s
Bit rate mode : Constant
Bit rate : 384 Kbps
Channel(s) : 6 channels
Channel positions : Front: L C R, Side: L R, LFE
Sampling rate : 48.0 KHz
Bit depth : 16 bits
Compression mode : Lossy
Stream size : 141 MiB (10%)
Default : Yes
Forced : No

Leave a Reply

Fill in your details below or click an icon to log in:

WordPress.com Logo

You are commenting using your WordPress.com account. Log Out / Change )

Twitter picture

You are commenting using your Twitter account. Log Out / Change )

Facebook photo

You are commenting using your Facebook account. Log Out / Change )

Google+ photo

You are commenting using your Google+ account. Log Out / Change )

Connecting to %s

%d bloggers like this: