Dexter S06E11 720p60


Dexter: Talk to the Hand

Dexter finds that in order to catch the Doomsday Killers, he must create a macabre tableau of his own; Debra’s battle with LaGuerta over the case of the dead call girl boils over, and her therapist makes an unnerving suggestion.
Episode number: 6×11
Airdate: Sunday December 11th, 2011

Special Guest Stars

Colin HanksColin Hanks
As Travis Marshall

Recurring

Guest Stars

Geoff PiersonGeoff Pierson
As Deputy Chief Tom Matthews

Recurring
Aimee GarciaAimee Garcia
As Jamie Batista

Recurring
Billy Brown (3)Billy Brown (3)
As Mike Anderson

Recurring
Josh Cooke (1)Josh Cooke (1)
As Louis Greene

Recurring
Kyle DavisKyle Davis
As Steve Dorsey

Recurring
Jordana SpiroJordana Spiro
As Beth Dorsey

Recurring
Rya KihlstedtRya Kihlstedt
As Dr. Michelle Ross

Recurring

Co-Guest Stars

Lacey BeemanLacey Beeman
As Holly (Holly Benson)

Recurring
Luke Andrew KruntchevLuke Andrew Kruntchev
As Harrison (Harrison Morgan)

Recurring
Nicole PettisNicole Pettis
As Reporter

Recurring
Julie LancasterJulie Lancaster
As Agent Hubbard

Mark GanttMark Gantt
As Mills

Rafael FeldmanRafael Feldman
As Paramedic

Main Cast

Michael C. HallMichael C. Hall
As Dexter Morgan
Jennifer CarpenterJennifer Carpenter
As Det./Lt. Debra Morgan
Desmond HarringtonDesmond Harrington
As Joey Quinn
C. S. LeeC. S. Lee
As Vince Masuka
Lauren VelezLauren Velez
As Lt./Capt. Maria LaGuerta
David ZayasDavid Zayas
As Sgt. Angel Batista
James RemarJames Remar
As Harry Morgan

Recap

The detectives and team show up at the yacht. Dexter tells him how Dorsey was killed. Louis tells them that they told Batista and then they realize that Batista is missing. Travis tells Batista that he doesn’t understand, but he will. He will wish he had faith when the new world begins. Batista tells him that he does have faith. He tells him to pray…

Read the full recap

Music
Artist Song Title Played When
Daniel J. Licht Hide Your Tears End of episode
Episode Goofs
Beth could never have entered the police station without a pin number. Otherwise, why have a keypad next to the door.
Missing Information

General

Unique ID : 240884830554425719425620046771401014663 (0xB538BB17C34624C6A94FCD8FE2E03D87)
Complete name : S:\Videos\Seriale\Dexter\Dexter.S06E11.720p60.HDTV.x264-IMMERSE.mkv
Format : Matroska
Format version : Version 2
File size : 1.06 GiB
Duration : 47mn 52s
Overall bit rate : 3 175 Kbps
Encoded date : UTC 2012-02-08 08:58:06
Writing application : mkvmerge v5.0.1 (‘Es ist Sommer’) built on Oct 9 2011 11:55:43
Writing library : libebml v1.2.2 + libmatroska v1.3.0

Video

ID : 1
Format : AVC
Format/Info : Advanced Video Codec
Format profile : High@L3.2
Format settings, CABAC : Yes
Format settings, ReFrames : 4 frames
Muxing mode : Header stripping
Codec ID : V_MPEG4/ISO/AVC
Duration : 47mn 52s
Bit rate : 2 728 Kbps
Width : 1 280 pixels
Height : 720 pixels
Display aspect ratio : 16:9
Frame rate : 59.940 fps
Color space : YUV
Chroma subsampling : 4:2:0
Bit depth : 8 bits
Scan type : Progressive
Bits/(Pixel*Frame) : 0.049
Stream size : 934 MiB (86%)
Writing library : x264 core 116 r2074 2641b9e
Encoding settings : cabac=1 / ref=3 / deblock=1:-1:-1 / analyse=0x3:0x113 / me=hex / subme=7 / psy=1 / psy_rd=1.00:0.15 / mixed_ref=1 / me_range=16 / chroma_me=1 / trellis=1 / 8x8dct=1 / cqm=0 / deadzone=21,11 / fast_pskip=1 / chroma_qp_offset=-3 / threads=3 / sliced_threads=0 / nr=0 / decimate=1 / interlaced=0 / bluray_compat=0 / constrained_intra=0 / bframes=3 / b_pyramid=2 / b_adapt=1 / b_bias=0 / direct=1 / weightb=1 / open_gop=0 / weightp=2 / keyint=250 / keyint_min=25 / scenecut=40 / intra_refresh=0 / rc_lookahead=40 / rc=crf / mbtree=1 / crf=19.5 / qcomp=0.60 / qpmin=10 / qpmax=51 / qpstep=4 / ip_ratio=1.40 / aq=1:1.00
Default : Yes
Forced : No

Audio

ID : 2
Format : AC-3
Format/Info : Audio Coding 3
Mode extension : CM (complete main)
Muxing mode : Header stripping
Codec ID : A_AC3
Duration : 47mn 52s
Bit rate mode : Constant
Bit rate : 384 Kbps
Channel(s) : 6 channels
Channel positions : Front: L C R, Side: L R, LFE
Sampling rate : 48.0 KHz
Bit depth : 16 bits
Compression mode : Lossy
Stream size : 132 MiB (12%)
Language : English
Default : Yes
Forced : No

Leave a Reply

Fill in your details below or click an icon to log in:

WordPress.com Logo

You are commenting using your WordPress.com account. Log Out / Change )

Twitter picture

You are commenting using your Twitter account. Log Out / Change )

Facebook photo

You are commenting using your Facebook account. Log Out / Change )

Google+ photo

You are commenting using your Google+ account. Log Out / Change )

Connecting to %s

%d bloggers like this: