Dexter S06E10 720p60


Dexter: Ricochet Rabbit

Dexter tries to figure out the Doomsday Killers’ next victim before it’s too late; Debra has a strong reaction to a crime scene, which leads her to the realization that she leans too heavily on her brother.
Episode number: 6×10
Airdate: Sunday December 04th, 2011

Special Guest Stars

Colin HanksColin Hanks
As Travis Marshall

Recurring
Edward James OlmosEdward James Olmos
As Professor James Gellar

Recurring

Guest Stars

Aimee GarciaAimee Garcia
As Jamie Batista

Recurring
Billy Brown (3)Billy Brown (3)
As Mike Anderson

Recurring
Josh Cooke (1)Josh Cooke (1)
As Louis Greene

Recurring
Kyle DavisKyle Davis
As Steve Dorsey

Recurring
Jordana SpiroJordana Spiro
As Beth Dorsey

Recurring
Rya KihlstedtRya Kihlstedt
As Dr. Michelle Ross

Recurring
Elizabeth McLaughlin (2)Elizabeth McLaughlin (2)
As Peter Grant’s daughter

Co-Guest Stars

Luke Andrew KruntchevLuke Andrew Kruntchev
As Harrison (Harrison Morgan)

Recurring
Lacey BeemanLacey Beeman
As Holly (Holly Benson)

Recurring
Molly MorganMolly Morgan
As Goth Female

Jarrett SleeperJarrett Sleeper
As College Male

Main Cast

Michael C. HallMichael C. Hall
As Dexter Morgan
Jennifer CarpenterJennifer Carpenter
As Det./Lt. Debra Morgan
Desmond HarringtonDesmond Harrington
As Joey Quinn
C. S. LeeC. S. Lee
As Vince Masuka
Lauren VelezLauren Velez
As Lt./Capt. Maria LaGuerta
David ZayasDavid Zayas
As Sgt. Angel Batista
James RemarJames Remar
As Harry Morgan

Recap

Dexter stands near the deep freeze. He realizes he has made a terrible mistake. He moves his hands to see how he was killed and learns that it is pretty much the MO. Travis waits and looks for Dexter. He asks if Travis killed Gellar and Travis closes the door, locking him in. ..

Read the full recap

Missing Information

General

Unique ID : 188083838330372364886813453752232187185 (0x8D7FA12F676209ECAE08979B1A9A1531)
Complete name : S:\Videos\Seriale\Dexter\Dexter.S06E10.720p60.HDTV.x264-IMMERSE.mkv
Format : Matroska
Format version : Version 2
File size : 1.03 GiB
Duration : 49mn 20s
Overall bit rate : 2 979 Kbps
Encoded date : UTC 2012-02-08 04:46:29
Writing application : mkvmerge v5.0.1 (‘Es ist Sommer’) built on Oct 9 2011 11:55:43
Writing library : libebml v1.2.2 + libmatroska v1.3.0

Video

ID : 1
Format : AVC
Format/Info : Advanced Video Codec
Format profile : High@L3.2
Format settings, CABAC : Yes
Format settings, ReFrames : 4 frames
Muxing mode : Header stripping
Codec ID : V_MPEG4/ISO/AVC
Duration : 49mn 20s
Bit rate : 2 535 Kbps
Width : 1 280 pixels
Height : 720 pixels
Display aspect ratio : 16:9
Frame rate : 59.940 fps
Color space : YUV
Chroma subsampling : 4:2:0
Bit depth : 8 bits
Scan type : Progressive
Bits/(Pixel*Frame) : 0.046
Stream size : 895 MiB (85%)
Writing library : x264 core 116 r2074 2641b9e
Encoding settings : cabac=1 / ref=3 / deblock=1:-1:-1 / analyse=0x3:0x113 / me=hex / subme=7 / psy=1 / psy_rd=1.00:0.15 / mixed_ref=1 / me_range=16 / chroma_me=1 / trellis=1 / 8x8dct=1 / cqm=0 / deadzone=21,11 / fast_pskip=1 / chroma_qp_offset=-3 / threads=3 / sliced_threads=0 / nr=0 / decimate=1 / interlaced=0 / bluray_compat=0 / constrained_intra=0 / bframes=3 / b_pyramid=2 / b_adapt=1 / b_bias=0 / direct=1 / weightb=1 / open_gop=0 / weightp=2 / keyint=250 / keyint_min=25 / scenecut=40 / intra_refresh=0 / rc_lookahead=40 / rc=crf / mbtree=1 / crf=20.0 / qcomp=0.60 / qpmin=10 / qpmax=51 / qpstep=4 / ip_ratio=1.40 / aq=1:1.00
Default : Yes
Forced : No

Audio

ID : 2
Format : AC-3
Format/Info : Audio Coding 3
Mode extension : CM (complete main)
Muxing mode : Header stripping
Codec ID : A_AC3
Duration : 49mn 20s
Bit rate mode : Constant
Bit rate : 384 Kbps
Channel(s) : 6 channels
Channel positions : Front: L C R, Side: L R, LFE
Sampling rate : 48.0 KHz
Bit depth : 16 bits
Compression mode : Lossy
Stream size : 136 MiB (13%)
Language : English
Default : Yes
Forced : No

Leave a Reply

Fill in your details below or click an icon to log in:

WordPress.com Logo

You are commenting using your WordPress.com account. Log Out / Change )

Twitter picture

You are commenting using your Twitter account. Log Out / Change )

Facebook photo

You are commenting using your Facebook account. Log Out / Change )

Google+ photo

You are commenting using your Google+ account. Log Out / Change )

Connecting to %s

%d bloggers like this: