Dexter S06E09 720p60


Dexter: Get Gellar

Dexter receives help from an unexpected source while hunting the Doomsday Killers and staying one step ahead of Homicide; Debra discovers something new about herself in therapy.
Dexter.S06E09.720p60.HDTV.X264-DIMENSION.mkv (1.10GB)
-or-
or
Episode Info
Episode number: 6×9
Airdate: Sunday November 27th, 2011

Director: Seith Mann
Writer: Karen Campbell
Special Guest Stars

Colin HanksColin Hanks
As Travis Marshall

Recurring
Edward James OlmosEdward James Olmos
As Professor James Gellar

Recurring

Guest Stars

Geoff PiersonGeoff Pierson
As Deputy Chief Tom Matthews

Recurring
Aimee GarciaAimee Garcia
As Jamie Batista

Recurring
Billy Brown (3)Billy Brown (3)
As Mike Anderson

Recurring
Josh Cooke (1)Josh Cooke (1)
As Louis Greene

Recurring
Kyle DavisKyle Davis
As Steve Dorsey

Recurring
Rya KihlstedtRya Kihlstedt
As Dr. Michelle Ross

Recurring
Alex Hyde-WhiteAlex Hyde-White
As Professor Trent Casey

Co-Guest Stars

Evan George KruntchevEvan George Kruntchev
As Harrison (Harrison Morgan)

Recurring
Luke Andrew KruntchevLuke Andrew Kruntchev
As Harrison (Harrison Morgan)

Recurring
Elizabeth TobiasElizabeth Tobias
As Nun

Recurring
J. DowningJ. Downing
As Mr. Morris

Judson MillsJudson Mills
As Floyd

Sheila ShawSheila Shaw
As Connie

Niko PoseyNiko Posey
As Concerned Citizen

Whitney AndersonWhitney Anderson
As Young Woman

Main Cast

Michael C. HallMichael C. Hall
As Dexter Morgan
Jennifer CarpenterJennifer Carpenter
As Det./Lt. Debra Morgan
Desmond HarringtonDesmond Harrington
As Joey Quinn
C. S. LeeC. S. Lee
As Vince Masuka
Lauren VelezLauren Velez
As Lt./Capt. Maria LaGuerta
David ZayasDavid Zayas
As Sgt. Angel Batista
James RemarJames Remar
As Harry Morgan

Recap

Dexter breaks Travis out of the chains. He asks him where Gellar is and Travis claims that he doesn’t know. He doesn’t know anything, because Gellar “made all of the decisions”. He tells him to help find something that’ll help them find Gellar. He finds a card that says 2 Lot on it. Travis says he feels dizzy. Dexter wants to get Travis’ arm fixed and finds him somewhere he can stay. He takes him to a hotel…

Read the full recap

General

Unique ID : 182113685367871023424852021156225960913 (0x8901D1EB1434E801A1A0277512F74BD1)
Complete name : S:\Videos\Seriale\Dexter\Dexter.S06E09.720p60.HDTV.X264-DIMENSION.mkv
Format : Matroska
Format version : Version 2
File size : 1.10 GiB
Duration : 50mn 32s
Overall bit rate : 3 127 Kbps
Encoded date : UTC 2012-01-19 07:40:08
Writing application : mkvmerge v5.0.1 (‘Es ist Sommer’) built on Oct 9 2011 11:55:43
Writing library : libebml v1.2.2 + libmatroska v1.3.0

Video

ID : 1
Format : AVC
Format/Info : Advanced Video Codec
Format profile : High@L3.2
Format settings, CABAC : Yes
Format settings, ReFrames : 5 frames
Muxing mode : Header stripping
Codec ID : V_MPEG4/ISO/AVC
Duration : 50mn 32s
Bit rate : 2 681 Kbps
Width : 1 280 pixels
Height : 720 pixels
Display aspect ratio : 16:9
Frame rate : 59.940 fps
Color space : YUV
Chroma subsampling : 4:2:0
Bit depth : 8 bits
Scan type : Progressive
Bits/(Pixel*Frame) : 0.049
Stream size : 969 MiB (86%)
Writing library : x264 core 116 r2074 2641b9e
Encoding settings : cabac=1 / ref=5 / deblock=1:-1:-1 / analyse=0x3:0x113 / me=umh / subme=8 / psy=1 / psy_rd=1.00:0.15 / mixed_ref=1 / me_range=16 / chroma_me=1 / trellis=1 / 8x8dct=1 / cqm=0 / deadzone=21,11 / fast_pskip=1 / chroma_qp_offset=-3 / threads=3 / sliced_threads=0 / nr=0 / decimate=1 / interlaced=0 / bluray_compat=0 / constrained_intra=0 / bframes=3 / b_pyramid=2 / b_adapt=2 / b_bias=0 / direct=3 / weightb=1 / open_gop=0 / weightp=2 / keyint=250 / keyint_min=25 / scenecut=40 / intra_refresh=0 / rc_lookahead=50 / rc=crf / mbtree=1 / crf=20.0 / qcomp=0.60 / qpmin=10 / qpmax=51 / qpstep=4 / ip_ratio=1.40 / aq=1:1.00
Default : Yes
Forced : No

Audio

ID : 2
Format : AC-3
Format/Info : Audio Coding 3
Mode extension : CM (complete main)
Muxing mode : Header stripping
Codec ID : A_AC3
Duration : 50mn 32s
Bit rate mode : Constant
Bit rate : 384 Kbps
Channel(s) : 6 channels
Channel positions : Front: L C R, Side: L R, LFE
Sampling rate : 48.0 KHz
Bit depth : 16 bits
Compression mode : Lossy
Stream size : 139 MiB (12%)
Default : Yes
Forced : No

Leave a Reply

Fill in your details below or click an icon to log in:

WordPress.com Logo

You are commenting using your WordPress.com account. Log Out / Change )

Twitter picture

You are commenting using your Twitter account. Log Out / Change )

Facebook photo

You are commenting using your Facebook account. Log Out / Change )

Google+ photo

You are commenting using your Google+ account. Log Out / Change )

Connecting to %s

%d bloggers like this: