Dexter S06E08 720p60


Dexter: Sin of Omission

Dexter uses lessons he learned from Brother Sam to follow up on some new leads in the Doomsday investigation; Debra butts heads with Captain LaGuerta over the case of a dead call girl.
Episode number: 6×8
Airdate: Sunday November 20th, 2011
Dexter.S06E08.720p60.HDTV.x264-IMMERSE.mkv (1.19 GB)
-or-
or
___
Special Guest Stars

Colin HanksColin Hanks
As Travis Marshall

Recurring
Edward James OlmosEdward James Olmos
As Professor James Gellar

Recurring

Guest Stars

Aimee GarciaAimee Garcia
As Jamie Batista

Recurring
Billy Brown (3)Billy Brown (3)
As Mike Anderson

Recurring
Molly ParkerMolly Parker
As Lisa Marshall

Recurring
Josh Cooke (1)Josh Cooke (1)
As Louis Greene

Recurring
Rya KihlstedtRya Kihlstedt
As Dr. Michelle Ross

Recurring
W. Morgan SheppardW. Morgan Sheppard
As Father Nicholas Galway

Co-Guest Stars

Evan George KruntchevEvan George Kruntchev
As Harrison (Harrison Morgan)

Recurring
Luke Andrew KruntchevLuke Andrew Kruntchev
As Harrison (Harrison Morgan)

Recurring
Justin HuenJustin Huen
As Diego

Recurring
Casey KramerCasey Kramer
As Nun

Rudy QuintanillaRudy Quintanilla
As Francisco

Jeff De Serrano (1)Jeff De Serrano (1)
As Bouncer

Main Cast

Michael C. HallMichael C. Hall
As Dexter Morgan
Jennifer CarpenterJennifer Carpenter
As Det./Lt. Debra Morgan
Desmond HarringtonDesmond Harrington
As Joey Quinn
C. S. LeeC. S. Lee
As Vince Masuka
Lauren VelezLauren Velez
As Lt./Capt. Maria LaGuerta
David ZayasDavid Zayas
As Sgt. Angel Batista

Recap

Dexter gets coffee and a doughnut for Deb. She is a little angry at Dexter for being gone for five days. He says he had to deal with everything that has been going on. She says she understands, but she’s under a lot of stress with the DDK case and he shouldn’t have left. She updates him on the DDK case, tells him about the victim that was let go. Dexter has to go to the funeral of Brother Sam and then go to work late…Read the full recap

General

Unique ID : 191599051738215309534479872560427064841 (0x9024A2964C942E7E92B79649C66E5E09)
Complete name : S:\Videos\Seriale\Dexter\Dexter.S06E08.720p60.HDTV.x264-IMMERSE.mkv
Format : Matroska
Format version : Version 2
File size : 1.19 GiB
Duration : 51mn 30s
Overall bit rate : 3 301 Kbps
Encoded date : UTC 2012-01-13 08:39:08
Writing application : mkvmerge v5.0.1 (‘Es ist Sommer’) built on Oct 9 2011 11:55:43
Writing library : libebml v1.2.2 + libmatroska v1.3.0

Video

ID : 1
Format : AVC
Format/Info : Advanced Video Codec
Format profile : High@L3.2
Format settings, CABAC : Yes
Format settings, ReFrames : 5 frames
Muxing mode : Header stripping
Codec ID : V_MPEG4/ISO/AVC
Duration : 51mn 30s
Bit rate : 2 852 Kbps
Width : 1 280 pixels
Height : 720 pixels
Display aspect ratio : 16:9
Frame rate : 59.940 fps
Color space : YUV
Chroma subsampling : 4:2:0
Bit depth : 8 bits
Scan type : Progressive
Bits/(Pixel*Frame) : 0.052
Stream size : 1.03 GiB (86%)
Writing library : x264 core 116 r2074 2641b9e
Encoding settings : cabac=1 / ref=5 / deblock=1:-1:-1 / analyse=0x3:0x113 / me=umh / subme=8 / psy=1 / psy_rd=1.00:0.15 / mixed_ref=1 / me_range=16 / chroma_me=1 / trellis=1 / 8x8dct=1 / cqm=0 / deadzone=21,11 / fast_pskip=1 / chroma_qp_offset=-3 / threads=4 / sliced_threads=0 / nr=0 / decimate=1 / interlaced=0 / bluray_compat=0 / constrained_intra=0 / bframes=3 / b_pyramid=2 / b_adapt=2 / b_bias=0 / direct=3 / weightb=1 / open_gop=0 / weightp=2 / keyint=250 / keyint_min=25 / scenecut=40 / intra_refresh=0 / rc_lookahead=50 / rc=crf / mbtree=1 / crf=19.0 / qcomp=0.60 / qpmin=10 / qpmax=51 / qpstep=4 / ip_ratio=1.40 / aq=1:1.00
Default : Yes
Forced : No

Audio

ID : 2
Format : AC-3
Format/Info : Audio Coding 3
Mode extension : CM (complete main)
Muxing mode : Header stripping
Codec ID : A_AC3
Duration : 51mn 30s
Bit rate mode : Constant
Bit rate : 384 Kbps
Channel(s) : 6 channels
Channel positions : Front: L C R, Side: L R, LFE
Sampling rate : 48.0 KHz
Bit depth : 16 bits
Compression mode : Lossy
Stream size : 141 MiB (12%)
Language : English
Default : Yes
Forced : No

http://wp.me/p1YmAJ-an

Leave a Reply

Fill in your details below or click an icon to log in:

WordPress.com Logo

You are commenting using your WordPress.com account. Log Out / Change )

Twitter picture

You are commenting using your Twitter account. Log Out / Change )

Facebook photo

You are commenting using your Facebook account. Log Out / Change )

Google+ photo

You are commenting using your Google+ account. Log Out / Change )

Connecting to %s

%d bloggers like this: