How I Met Your Mother S07E13 720p60


How I Met Your Mother: Tailgate

How I Met Your Mother

After celebrating New Year’s Eve, Marshall visits his father’s graveside to carry on their tradition of tailgating. Meanwhile, Barney and Ted open a bar called “Puzzles,” and Robin is forced to fill in for an inebriated news anchor.
How.I.Met.Your.Mother.S07E13.720p60.HDTV.x264-IMMERSE.mkv (674.82 MB)

Episode Info

Episode number: 7×13
Airdate: Monday January 02nd, 2012

Director: Pamela Fryman
Writer: Carter BaysCraig Thomas

Guest Stars

Alexis DenisofAlexis Denisof
As Sandy Rivers

Recurring
Chris ElliotChris Elliot
As Mickey

Recurring
Kal PennKal Penn
As Kevin

Recurring
Will SassoWill Sasso
As Doug

Recurring
Bill FaggerbakkeBill Faggerbakke
As Marvin Sr.

Main Cast

Josh RadnorJosh Radnor
As Ted Mosby
Jason SegelJason Segel
As Marshall Eriksen
Cobie SmuldersCobie Smulders
As Robin Scherbatsky
Neil Patrick HarrisNeil Patrick Harris
As Barney Stinson
Alyson HanniganAlyson Hannigan
As Lily Aldrin
Bob SagetBob Saget
voiced Narrator / Ted, 2030

Recap

Ted tells his kids that Marshall went to visit his father’s grave on New Years Day in 2012. He can’t believe it has been a year and he thinks that the best way to honor his memory is to watch football and get wasted with him. He talks about how it was one of their traditions. They would tailgate and bond at the game. He even wears his father’s apron that he’d wear. ..

Read the full recap

General

Unique ID : 254099788325439566909764707658904469595 (0xBF29D6D08ED7C570887A4D90A0D9805B)
Complete name : S:\Videos\Seriale\How I met Your mother\How.I.Met.Your.Mother.S07E13.720p60.HDTV.x264-IMMERSE.mkv
Format : Matroska
Format version : Version 2
File size : 675 MiB
Duration : 21mn 8s
Overall bit rate : 4 464 Kbps
Encoded date : UTC 2012-01-17 20:25:38
Writing application : mkvmerge v5.0.1 (‘Es ist Sommer’) built on Oct 9 2011 11:55:43
Writing library : libebml v1.2.2 + libmatroska v1.3.0

Video

ID : 1
Format : AVC
Format/Info : Advanced Video Codec
Format profile : High@L3.2
Format settings, CABAC : Yes
Format settings, ReFrames : 4 frames
Muxing mode : Header stripping
Codec ID : V_MPEG4/ISO/AVC
Duration : 21mn 8s
Bit rate : 3 927 Kbps
Width : 1 280 pixels
Height : 720 pixels
Display aspect ratio : 16:9
Frame rate : 59.940 fps
Color space : YUV
Chroma subsampling : 4:2:0
Bit depth : 8 bits
Scan type : Progressive
Bits/(Pixel*Frame) : 0.071
Stream size : 594 MiB (88%)
Writing library : x264 core 116 r2074 2641b9e
Encoding settings : cabac=1 / ref=3 / deblock=1:-1:-1 / analyse=0x3:0x113 / me=hex / subme=7 / psy=1 / psy_rd=1.00:0.15 / mixed_ref=1 / me_range=16 / chroma_me=1 / trellis=1 / 8x8dct=1 / cqm=0 / deadzone=21,11 / fast_pskip=1 / chroma_qp_offset=-3 / threads=2 / sliced_threads=0 / nr=0 / decimate=1 / interlaced=0 / bluray_compat=0 / constrained_intra=0 / bframes=3 / b_pyramid=2 / b_adapt=1 / b_bias=0 / direct=1 / weightb=1 / open_gop=0 / weightp=2 / keyint=250 / keyint_min=25 / scenecut=40 / intra_refresh=0 / rc_lookahead=40 / rc=crf / mbtree=1 / crf=19.0 / qcomp=0.60 / qpmin=10 / qpmax=51 / qpstep=4 / ip_ratio=1.40 / aq=1:1.00
Default : Yes
Forced : No

Audio

ID : 2
Format : AC-3
Format/Info : Audio Coding 3
Mode extension : CM (complete main)
Muxing mode : Header stripping
Codec ID : A_AC3
Duration : 21mn 8s
Bit rate mode : Constant
Bit rate : 448 Kbps
Channel(s) : 6 channels
Channel positions : Front: L C R, Side: L R, LFE
Sampling rate : 48.0 KHz
Bit depth : 16 bits
Compression mode : Lossy
Stream size : 67.7 MiB (10%)
Language : English
Default : Yes
Forced : No

Leave a Reply

Fill in your details below or click an icon to log in:

WordPress.com Logo

You are commenting using your WordPress.com account. Log Out / Change )

Twitter picture

You are commenting using your Twitter account. Log Out / Change )

Facebook photo

You are commenting using your Facebook account. Log Out / Change )

Google+ photo

You are commenting using your Google+ account. Log Out / Change )

Connecting to %s

%d bloggers like this: