Castle S04E12 720p60


Castle: Dial M for Mayor

Derek Webster guest stars as Mayor Robert Weldon, Castle’s longtime friend and the Mayor of New York City. It was Mayor Weldon’s political clout that allowed Castle to partner up with Beckett. But now, when a woman is found dead in a car that traces back to the Mayor’s motor pool, that partnership comes under fire as the scandal surrounding the investigation threatens to bring down Weldon’s administration.
Castle.S04E12.720p60.HDTV.X264-DIMENSION.mkv (838.94 MB)
-or-
___________________________

Episode Info

Episode number: 4×12
Airdate: Monday January 16th, 2012

Director: Kate Woods
Writer: Christine Boylan
Guest Stars

Geoff PiersonGeoff Pierson
As Mr. Smith

Recurring
Derek WebsterDerek Webster
As Mayor Robert Weldon

Adam KulbershAdam Kulbersh
As Brian Shay

Michael TerryMichael Terry
As Jordan Norris

Rebecca FieldRebecca Field
As Marilyn Kane

Germaine De LeonGermaine De Leon
As Edgar Navarro

Steve Brand (1)Steve Brand (1)
As Trevor Haines

Cara PifkoCara Pifko
As Roberta Cambridge

Dave FlorekDave Florek
As Harvey

Victoria PlattVictoria Platt
As Connie Park

Mimi MichaelsMimi Michaels
As Sarah Marx

Co-Guest Stars

Susan SpanoSusan Spano
As Kitty

Patrick CohenPatrick Cohen
As Patrick McConnell

D. C. DouglasD. C. Douglas
As Bill Moss

Tracy ScogginsTracy Scoggins
As Lana

Tara PlattTara Platt
As Janelle

Cecelia SpechtCecelia Specht
voiced Screaming D.A.G. Operator

Main Cast

Nathan FillionNathan Fillion
As Richard Castle
Stana KaticStana Katic
As Kate Beckett
Susan SullivanSusan Sullivan
As Martha Rodgers
Jon HuertasJon Huertas
As Javier Esposito
Seamus DeverSeamus Dever
As Kevin Ryan
Tamala JonesTamala Jones
As Lanie Parish
Molly QuinnMolly Quinn
As Alexis Castle
Penny Johnson JeraldPenny Johnson Jerald
As Captain Victoria Gates

Recap

The scene begins with with some mood music and a saucy sex scene in the back of a car, but ends up with a dead, lifeless body in the back of the car instead. Later at the scene, Lanie informs Castle and Beckett that the victim was choked by someone — presumably, a male. Ryan says the vehicle the body was found in belongs to the Mayor Weldon, aka the only reason Castle’s allowed in the precinct. Cut to Castle and Beckett at the local law offices. “We’re sorry one of our vehicles got messed up in this,” says the mayor. Luckily, Mr. Mayor has a nice alibi. Later, Gates asks Beckett what she found out at City Hall, and tells Beckett to watch herself since Castle has a bias. She tells her that she won’t be the only one watching. Esposito finds out the car was stolen off the street, so the Mayor connection could just be pure coincidence. As for the vic? Laura Cambridge was a professor at Hudson University, but cancelled her phone and credit cards six months prior, not to mention cut off her colleagues. ..Read the full recap

General

Unique ID : 234372662802078748160305909574013983556 (0xB052886EFE63B3D98CA3D7B17C7E9B44)
Complete name : S:\Videos\Seriale\Castle\Castle.S04E12.720p60.HDTV.X264-DIMENSION.mkv
Format : Matroska
Format version : Version 2
File size : 839 MiB
Duration : 42mn 31s
Overall bit rate : 2 758 Kbps
Encoded date : UTC 2012-01-18 08:53:46
Writing application : mkvmerge v5.0.1 (‘Es ist Sommer’) built on Oct 9 2011 11:55:43
Writing library : libebml v1.2.2 + libmatroska v1.3.0

Video

ID : 1
Format : AVC
Format/Info : Advanced Video Codec
Format profile : High@L3.2
Format settings, CABAC : Yes
Format settings, ReFrames : 4 frames
Muxing mode : Header stripping
Codec ID : V_MPEG4/ISO/AVC
Duration : 42mn 31s
Bit rate : 2 319 Kbps
Width : 1 280 pixels
Height : 720 pixels
Display aspect ratio : 16:9
Frame rate : 59.940 fps
Color space : YUV
Chroma subsampling : 4:2:0
Bit depth : 8 bits
Scan type : Progressive
Bits/(Pixel*Frame) : 0.042
Stream size : 705 MiB (84%)
Writing library : x264 core 116 r2074 2641b9e
Encoding settings : cabac=1 / ref=3 / deblock=1:-1:-1 / analyse=0x3:0x113 / me=hex / subme=7 / psy=1 / psy_rd=1.00:0.15 / mixed_ref=1 / me_range=16 / chroma_me=1 / trellis=1 / 8x8dct=1 / cqm=0 / deadzone=21,11 / fast_pskip=1 / chroma_qp_offset=-3 / threads=2 / sliced_threads=0 / nr=0 / decimate=1 / interlaced=0 / bluray_compat=0 / constrained_intra=0 / bframes=3 / b_pyramid=2 / b_adapt=1 / b_bias=0 / direct=1 / weightb=1 / open_gop=0 / weightp=2 / keyint=250 / keyint_min=25 / scenecut=40 / intra_refresh=0 / rc_lookahead=40 / rc=crf / mbtree=1 / crf=19.0 / qcomp=0.60 / qpmin=10 / qpmax=51 / qpstep=4 / ip_ratio=1.40 / aq=1:1.00
Default : Yes
Forced : No

Audio

ID : 2
Format : AC-3
Format/Info : Audio Coding 3
Mode extension : CM (complete main)
Muxing mode : Header stripping
Codec ID : A_AC3
Duration : 42mn 31s
Bit rate mode : Constant
Bit rate : 384 Kbps
Channel(s) : 6 channels
Channel positions : Front: L C R, Side: L R, LFE
Sampling rate : 48.0 KHz
Bit depth : 16 bits
Compression mode : Lossy
Stream size : 117 MiB (14%)
Default : Yes
Forced : No

Leave a Reply

Fill in your details below or click an icon to log in:

WordPress.com Logo

You are commenting using your WordPress.com account. Log Out / Change )

Twitter picture

You are commenting using your Twitter account. Log Out / Change )

Facebook photo

You are commenting using your Facebook account. Log Out / Change )

Google+ photo

You are commenting using your Google+ account. Log Out / Change )

Connecting to %s

%d bloggers like this: