Dexter S06E04


Dexter: A Horse of a Different Color

Much to his own surprise, an emergency with Harrison and a new tableau from Gellar and Travis has Dexter leaning on Brother Sam and an unexpected winged messenger for support as he questions the idea of faith; with proof of a religiously motivated killer, Homicide hunts for a zealot, with Debra giving her first official press conference.
_
Dexter.S06E04.720p60.HDTV.X264-DIMENSION.mkv (1.35 GB)
or
or
.
Special Guest Stars

Colin HanksColin Hanks
As Travis Marshall

Recurring
Edward James OlmosEdward James Olmos
As Professor James Gellar

Recurring
Mos DefMos Def
As Brother Sam

Recurring

Guest Stars

Aimee GarciaAimee Garcia
As Jamie Batista

Recurring
Billy Brown (4)Billy Brown (4)
As Mike Anderson

Recurring
Brea GrantBrea Grant
As Ryan Chambers

Recurring
Geoff PiersonGeoff Pierson
As Captain Matthews

Recurring

General

Unique ID : 188193088800808038420853689503456096180 (0x8D94ABA63432B9C3AA3C3B5B65CAEFB4)
Complete name : S:\Videos\Seriale\Dexter\Dexter.S06E04.720p60.HDTV.X264-DIMENSION.mkv
Format : Matroska
Format version : Version 2
File size : 1.35 GiB
Duration : 52mn 25s
Overall bit rate : 3 692 Kbps
Encoded date : UTC 2011-12-15 04:45:37
Writing application : mkvmerge v5.0.1 (‘Es ist Sommer’) built on Oct 9 2011 11:55:43
Writing library : libebml v1.2.2 + libmatroska v1.3.0

Video

ID : 1
Format : AVC
Format/Info : Advanced Video Codec
Format profile : High@L3.2
Format settings, CABAC : Yes
Format settings, ReFrames : 4 frames
Muxing mode : Header stripping
Codec ID : V_MPEG4/ISO/AVC
Duration : 52mn 25s
Bit rate : 3 234 Kbps
Width : 1 280 pixels
Height : 720 pixels
Display aspect ratio : 16:9
Frame rate : 59.940 fps
Color space : YUV
Chroma subsampling : 4:2:0
Bit depth : 8 bits
Scan type : Progressive
Bits/(Pixel*Frame) : 0.059
Stream size : 1.18 GiB (88%)
Writing library : x264 core 116 r2074 2641b9e
Encoding settings : cabac=1 / ref=3 / deblock=1:-1:-1 / analyse=0x3:0x113 / me=hex / subme=7 / psy=1 / psy_rd=1.00:0.15 / mixed_ref=1 / me_range=16 / chroma_me=1 / trellis=1 / 8x8dct=1 / cqm=0 / deadzone=21,11 / fast_pskip=1 / chroma_qp_offset=-3 / threads=2 / sliced_threads=0 / nr=0 / decimate=1 / interlaced=0 / bluray_compat=0 / constrained_intra=0 / bframes=3 / b_pyramid=2 / b_adapt=1 / b_bias=0 / direct=1 / weightb=1 / open_gop=0 / weightp=2 / keyint=250 / keyint_min=25 / scenecut=40 / intra_refresh=0 / rc_lookahead=40 / rc=crf / mbtree=1 / crf=19.0 / qcomp=0.60 / qpmin=10 / qpmax=51 / qpstep=4 / ip_ratio=1.40 / aq=1:1.00
Default : Yes
Forced : No

Audio

ID : 2
Format : AC-3
Format/Info : Audio Coding 3
Mode extension : CM (complete main)
Muxing mode : Header stripping
Codec ID : A_AC3
Duration : 52mn 25s
Bit rate mode : Constant
Bit rate : 384 Kbps
Channel(s) : 6 channels
Channel positions : Front: L C R, Side: L R, LFE
Sampling rate : 48.0 KHz
Bit depth : 16 bits
Compression mode : Lossy
Stream size : 144 MiB (10%)
Default : Yes
Forced : No

Leave a Reply

Fill in your details below or click an icon to log in:

WordPress.com Logo

You are commenting using your WordPress.com account. Log Out / Change )

Twitter picture

You are commenting using your Twitter account. Log Out / Change )

Facebook photo

You are commenting using your Facebook account. Log Out / Change )

Google+ photo

You are commenting using your Google+ account. Log Out / Change )

Connecting to %s

%d bloggers like this: