Dexter S06E03


Dexter: Smokey and the Bandit

Dexter is confronted with a sobering glimpse of his own potential future when a serial killer from his past makes a startling reappearance; Debra is uncomfortable in her new job; Travis struggles to keep his mentor happy, as he and Gellar prepare a new twisted tableau, ensuring Debra’s next task will be a daunting one.

Dexter.S06E03.720p60.HDTV.x264-IMMERSE.mkv (1.2 GB)

or
.
Special Guest Stars

Colin HanksColin Hanks
As Travis Marshall

Recurring
Edward James OlmosEdward James Olmos
As Professor James Gellar

Recurring

Guest Stars

Aimee GarciaAimee Garcia
As Jamie Batista

Recurring
Billy Brown (4)Billy Brown (4)
As Mike Anderson

Recurring
Brea GrantBrea Grant
As Ryan Chambers

Recurring
David Monahan (1)David Monahan (1)
As Nathan

Recurring
Ronny Cox (1)Ronny Cox (1)
As Walter Kenney

General

Unique ID : 175566765077370581065940589209086148628 (0x8414EDD39C4CE78B800A256872A94014)
Complete name : S:\Videos\Seriale\Dexter\Dexter.S06E03.720p60.HDTV.x264-IMMERSE.mkv
Format : Matroska
Format version : Version 2
File size : 1.20 GiB
Duration : 50mn 22s
Overall bit rate : 3 403 Kbps
Encoded date : UTC 2011-12-14 18:14:22
Writing application : mkvmerge v5.0.1 (‘Es ist Sommer’) built on Oct 9 2011 11:55:43
Writing library : libebml v1.2.2 + libmatroska v1.3.0

Video

ID : 1
Format : AVC
Format/Info : Advanced Video Codec
Format profile : High@L3.2
Format settings, CABAC : Yes
Format settings, ReFrames : 4 frames
Muxing mode : Header stripping
Codec ID : V_MPEG4/ISO/AVC
Duration : 50mn 22s
Bit rate : 2 951 Kbps
Width : 1 280 pixels
Height : 720 pixels
Display aspect ratio : 16:9
Frame rate : 59.940 fps
Color space : YUV
Chroma subsampling : 4:2:0
Bit depth : 8 bits
Scan type : Progressive
Bits/(Pixel*Frame) : 0.053
Stream size : 1.04 GiB (87%)
Writing library : x264 core 116 r2074 2641b9e
Encoding settings : cabac=1 / ref=3 / deblock=1:-1:-1 / analyse=0x3:0x113 / me=hex / subme=7 / psy=1 / psy_rd=1.00:0.15 / mixed_ref=1 / me_range=16 / chroma_me=1 / trellis=1 / 8x8dct=1 / cqm=0 / deadzone=21,11 / fast_pskip=1 / chroma_qp_offset=-3 / threads=3 / sliced_threads=0 / nr=0 / decimate=1 / interlaced=0 / bluray_compat=0 / constrained_intra=0 / bframes=3 / b_pyramid=2 / b_adapt=1 / b_bias=0 / direct=1 / weightb=1 / open_gop=0 / weightp=2 / keyint=250 / keyint_min=25 / scenecut=40 / intra_refresh=0 / rc_lookahead=40 / rc=crf / mbtree=1 / crf=19.0 / qcomp=0.60 / qpmin=10 / qpmax=51 / qpstep=4 / ip_ratio=1.40 / aq=1:1.00
Default : Yes
Forced : No

Audio

ID : 2
Format : AC-3
Format/Info : Audio Coding 3
Mode extension : CM (complete main)
Muxing mode : Header stripping
Codec ID : A_AC3
Duration : 50mn 22s
Bit rate mode : Constant
Bit rate : 384 Kbps
Channel(s) : 6 channels
Channel positions : Front: L C R, Side: L R, LFE
Sampling rate : 48.0 KHz
Bit depth : 16 bits
Compression mode : Lossy
Stream size : 138 MiB (11%)
Language : English
Default : Yes
Forced : No

Leave a Reply

Fill in your details below or click an icon to log in:

WordPress.com Logo

You are commenting using your WordPress.com account. Log Out / Change )

Twitter picture

You are commenting using your Twitter account. Log Out / Change )

Facebook photo

You are commenting using your Facebook account. Log Out / Change )

Google+ photo

You are commenting using your Google+ account. Log Out / Change )

Connecting to %s

%d bloggers like this: