The Way Back (2010)


The Way Back 2010 720p60.mkv

From Wikipedia, the free encyclopedia
The Way Back
 The Way Back is a 2010 drama film about a group of prisoners who escape from a Siberian Gulag camp during World War II. The film is directed by Peter Weir from a screenplay also by Weir and Keith Clarke, inspired by The Long Walk (1955), a book by Sławomir Rawicz, a Polish POW in the Soviet Gulag. It stars Jim Sturgess as Janusz, Colin Farrell as Valka, Ed Harris as Mr. Smith, and Saoirse Ronan as Irena, with Alexandru Potocean as Tomasz,Sebastian Urzendowsky as Kazik, Gustaf Skarsgård as Voss, Dragoş Bucur as Zoran, and Mark Strong as Khabarov. It was nominated for the Academy Award for Best Makeup.The Way Back 2010 720p60.mkv (4,84GB)

Put and run HJSpliter in download folder to join files: (http://www.multiupload.com/QCGKP5TM6J)

  1. http://www.uploading.to/fuhrgyc6jc3u
  2. http://www.uploading.to/8waemdd6nxe3
  3. http://www.uploading.to/akwf0w3rbxa7
  4. http://www.uploading.to/gn5i3f4jtgu4
  5. http://www.uploading.to/2be3xf95rk32
  6. http://www.uploading.to/qji4dnz96osb
  7. http://www.uploading.to/kyg49l6szygd

Directed by Peter Weir
Produced by Peter Weir
Joni Levin
Duncan Henderson
Nigel Sinclair
Scott Rudin
Screenplay by Peter Weir & Keith Clarke
Based on The Long Walk by
Sławomir Rawicz
Starring Jim Sturgess
Colin Farrell
Ed Harris
Saoirse Ronan
Mark Strong
Dragoş Bucur
Gustaf Skarsgård
Music by Burkhard Dallwitz
Cinematography Russel Boyd
Editing by Lee Smith
Studio National Geographic Films
Spitfire Pictures
Imagenation Abu Dhabi
Film Fund Luxembourg
Distributed by Newmarket Films
Exclusive Film Distribution
Meteor Pictures
Release date(s) September 3, 2010(Telluride Film Festival)
December 29, 2010(United States)
Running time 133 minutes
Language EnglishRussian,Polish
Budget $30 Million[1]
Box office $20,348,249[1]

Still of Jim Sturgess in The Way Back The Way Back Peter Weir at event of The Way Back Still of Ed Harris, Colin Farrell, Jim Sturgess and Saoirse Ronan in The Way Back The Way Back Still of Ed Harris, Peter Weir and Jim Sturgess in The Way Back

General

Unique ID : 182849236397518641335545059510368251351 (0x898F7B624BD8D5449E327F0BA96EADD7)
Complete name : S:\Videos\movies HD\The Way Back 2010 720p60.mkv
Format : Matroska
Format version : Version 2
File size : 4.84 GiB
Duration : 2h 13mn
Overall bit rate : 5 206 Kbps
Encoded date : UTC 2011-12-13 04:24:32
Writing application : mkvmerge v5.0.1 (‘Es ist Sommer’) built on Oct 9 2011 11:55:43
Writing library : libebml v1.2.2 + libmatroska v1.3.0

Video

ID : 1
Format : AVC
Format/Info : Advanced Video Codec
Format profile : High@L3.2
Format settings, CABAC : Yes
Format settings, ReFrames : 4 frames
Muxing mode : Header stripping
Codec ID : V_MPEG4/ISO/AVC
Duration : 2h 13mn
Bit rate : 3 592 Kbps
Width : 1 280 pixels
Height : 544 pixels
Display aspect ratio : 2.35:1
Frame rate : 59.940 fps
Color space : YUV
Chroma subsampling : 4:2:0
Bit depth : 8 bits
Scan type : Progressive
Bits/(Pixel*Frame) : 0.086
Stream size : 3.34 GiB (69%)
Writing library : x264 core 116 r2074 2641b9e
Encoding settings : cabac=1 / ref=3 / deblock=1:-1:-1 / analyse=0x3:0x113 / me=hex / subme=7 / psy=1 / psy_rd=1.00:0.15 / mixed_ref=1 / me_range=16 / chroma_me=1 / trellis=1 / 8x8dct=1 / cqm=0 / deadzone=21,11 / fast_pskip=1 / chroma_qp_offset=-3 / threads=3 / sliced_threads=0 / nr=0 / decimate=1 / interlaced=0 / bluray_compat=0 / constrained_intra=0 / bframes=3 / b_pyramid=2 / b_adapt=1 / b_bias=0 / direct=1 / weightb=1 / open_gop=0 / weightp=2 / keyint=250 / keyint_min=25 / scenecut=40 / intra_refresh=0 / rc_lookahead=40 / rc=crf / mbtree=1 / crf=18.5 / qcomp=0.60 / qpmin=10 / qpmax=51 / qpstep=4 / ip_ratio=1.40 / aq=1:1.00
Default : Yes
Forced : No

Audio

ID : 2
Format : DTS
Format/Info : Digital Theater Systems
Muxing mode : Header stripping
Codec ID : A_DTS
Duration : 2h 13mn
Bit rate mode : Constant
Bit rate : 1 510 Kbps
Channel(s) : 6 channels
Channel positions : Front: L C R, Side: L R, LFE
Sampling rate : 48.0 KHz
Bit depth : 24 bits
Compression mode : Lossy
Stream size : 1.40 GiB (29%)
Language : English
Default : Yes
Forced : No

Menu

00:00:00.000 : en:00:00:00.000
00:02:14.968 : en:00:02:14.968
00:12:47.475 : en:00:12:47.475
00:22:49.326 : en:00:22:49.326
00:33:29.382 : en:00:33:29.382
00:45:12.376 : en:00:45:12.376
00:55:41.672 : en:00:55:41.672
01:07:05.772 : en:01:07:05.772
01:16:34.006 : en:01:16:34.006
01:29:37.455 : en:01:29:37.455
01:39:41.142 : en:01:39:41.142
01:48:29.294 : en:01:48:29.294
01:56:42.454 : en:01:56:42.454
02:06:01.929 : en:02:06:01.929

Leave a Reply

Fill in your details below or click an icon to log in:

WordPress.com Logo

You are commenting using your WordPress.com account. Log Out / Change )

Twitter picture

You are commenting using your Twitter account. Log Out / Change )

Facebook photo

You are commenting using your Facebook account. Log Out / Change )

Google+ photo

You are commenting using your Google+ account. Log Out / Change )

Connecting to %s

%d bloggers like this: