How I Met Your Mother S07E10 720p60 HDTV X264-DIMENSION


How I Met Your Mother: Tick Tick Tick…

How I Met Your Mother

Barney and Robin find themselves in an uncomfortable situation when they hide a secret from their significant others. Meanwhile, Marshall, Lily and Ted attend a concert.

How.I.Met.Your.Mother.S07E10.720p60.HDTV.X264-DIMENSION.mkv (610,3 MB)
http://www.multiupload.com/SQK7H86V77

http://www.tvrage.com/How_I_Met_Your_Mother/episodes/1065102191

General

Unique ID : 249052058729427920071008250766531184328 (0xBB5DAE87F178CF6F8337946976F346C8)
Complete name : S:\Videos\Seriale\How I met Your mother\How.I.Met.Your.Mother.S07E10.720p60.HDTV.X264-DIMENSION.mkv
Format : Matroska
Format version : Version 2
File size : 610 MiB
Duration : 21mn 35s
Overall bit rate : 3 952 Kbps
Encoded date : UTC 2011-11-17 04:28:35
Writing application : mkvmerge v4.9.1 (‘Ich will’) built on Jul 11 2011 23:53:15
Writing library : libebml v1.2.1 + libmatroska v1.1.1

Video

ID : 1
Format : AVC
Format/Info : Advanced Video Codec
Format profile : High@L3.2
Format settings, CABAC : Yes
Format settings, ReFrames : 4 frames
Muxing mode : Header stripping
Codec ID : V_MPEG4/ISO/AVC
Duration : 21mn 35s
Bit rate : 3 425 Kbps
Width : 1 280 pixels
Height : 720 pixels
Display aspect ratio : 16:9
Frame rate : 59.940 fps
Color space : YUV
Chroma subsampling : 4:2:0
Bit depth : 8 bits
Scan type : Progressive
Bits/(Pixel*Frame) : 0.062
Stream size : 529 MiB (87%)
Writing library : x264 core 116 r2074 2641b9e
Encoding settings : cabac=1 / ref=3 / deblock=1:0:0 / analyse=0x3:0x113 / me=hex / subme=7 / psy=1 / psy_rd=1.00:0.00 / mixed_ref=1 / me_range=16 / chroma_me=1 / trellis=1 / 8x8dct=1 / cqm=0 / deadzone=21,11 / fast_pskip=1 / chroma_qp_offset=-2 / threads=4 / sliced_threads=0 / nr=0 / decimate=1 / interlaced=0 / bluray_compat=0 / constrained_intra=0 / bframes=3 / b_pyramid=2 / b_adapt=1 / b_bias=0 / direct=1 / weightb=1 / open_gop=0 / weightp=2 / keyint=250 / keyint_min=25 / scenecut=40 / intra_refresh=0 / rc_lookahead=40 / rc=crf / mbtree=1 / crf=19.0 / qcomp=0.60 / qpmin=10 / qpmax=51 / qpstep=4 / ip_ratio=1.40 / aq=1:1.00
Default : Yes
Forced : No

Audio

ID : 2
Format : AC-3
Format/Info : Audio Coding 3
Mode extension : CM (complete main)
Muxing mode : Header stripping
Codec ID : A_AC3
Duration : 21mn 35s
Bit rate mode : Constant
Bit rate : 448 Kbps
Channel(s) : 6 channels
Channel positions : Front: L C R, Side: L R, LFE
Sampling rate : 48.0 KHz
Bit depth : 16 bits
Compression mode : Lossy
Stream size : 69.2 MiB (11%)
Default : Yes
Forced : No

Leave a Reply

Fill in your details below or click an icon to log in:

WordPress.com Logo

You are commenting using your WordPress.com account. Log Out / Change )

Twitter picture

You are commenting using your Twitter account. Log Out / Change )

Facebook photo

You are commenting using your Facebook account. Log Out / Change )

Google+ photo

You are commenting using your Google+ account. Log Out / Change )

Connecting to %s

%d bloggers like this: