Black Swan (2010)


Black Swan (2010)15

Black Swan Poster
108 min

Director:

Darren Aronofsky

Writers:

Mark Heyman (screenplay), Andres Heinz(screenplay), and 2 more credits »

Stars:

Natalie PortmanMila Kunis and Vincent Cassel

A ballet dancer wins the lead in “Swan Lake” and is perfect for the role of the delicate White Swan – Princess Odette – but slowly loses her mind as she becomes more and more like Odile, the Black Swan. Watch Trailer
 116 photos | 41 videos | 8700 news articles | full cast and crew »

Black.Swan.720p60.bluray.mkv 4.03GB

  1. http://www.multiupload.com/24PABWCSHW
  2. http://www.multiupload.com/PXM3BNZ4NO
  3. http://www.multiupload.com/2ZIQV2JTTU
  4. http://www.multiupload.com/4B63YA32B1
  5. http://www.multiupload.com/Z26QIO11I0
  6. http://www.multiupload.com/4SPDQBEAF9
  7. http://www.multiupload.com/OVDV8GUJFO
  8. http://www.multiupload.com/5UVQP4HNN5
  9. http://www.multiupload.com/MH4QEY0R6F
  10. http://www.multiupload.com/NJXKCKQURX
  11. http://www.multiupload.com/6AQQU9RCCU

Still of Natalie Portman and Barbara Hershey in Black Swan Still of Winona Ryder in Black Swan Michael Stuhlbarg at event of Black Swan Still of Mila Kunis in Black Swan Still of Natalie Portman in Black Swan

http://www.imdb.com/title/tt0947798/

General

Unique ID : 192066489227153962635438241851502947933 (0x907EA908DEA2B4AE96BE8CE257D6EE5D)
Complete name : S:\Videos\movies HD\Black.Swan.720p60.bluray.mkv
Format : Matroska
Format version : Version 2
File size : 4.04 GiB
Duration : 1h 48mn
Overall bit rate : 5 343 Kbps
Encoded date : UTC 2011-11-11 14:55:09
Writing application : mkvmerge v5.0.1 (‘Es ist Sommer’) built on Oct 9 2011 11:55:43
Writing library : libebml v1.2.2 + libmatroska v1.3.0

Video

ID : 1
Format : AVC
Format/Info : Advanced Video Codec
Format profile : High@L5.1
Format settings, CABAC : Yes
Format settings, ReFrames : 4 frames
Codec ID : V_MPEG4/ISO/AVC
Duration : 1h 48mn
Bit rate : 3 727 Kbps
Width : 1 280 pixels
Height : 528 pixels
Display aspect ratio : 2.40:1
Frame rate : 59.940 fps
Color space : YUV
Chroma subsampling : 4:2:0
Bit depth : 8 bits
Scan type : Progressive
Bits/(Pixel*Frame) : 0.092
Stream size : 2.81 GiB (70%)
Writing library : x264 core 116 r2074 2641b9e
Encoding settings : cabac=1 / ref=3 / deblock=1:-1:-1 / analyse=0x3:0x113 / me=hex / subme=7 / psy=1 / psy_rd=1.00:0.15 / mixed_ref=1 / me_range=16 / chroma_me=1 / trellis=1 / 8x8dct=1 / cqm=0 / deadzone=21,11 / fast_pskip=1 / chroma_qp_offset=-3 / threads=3 / sliced_threads=0 / nr=0 / decimate=1 / interlaced=0 / bluray_compat=0 / constrained_intra=0 / bframes=3 / b_pyramid=2 / b_adapt=1 / b_bias=0 / direct=1 / weightb=1 / open_gop=0 / weightp=2 / keyint=250 / keyint_min=25 / scenecut=40 / intra_refresh=0 / rc_lookahead=40 / rc=crf / mbtree=1 / crf=19.0 / qcomp=0.60 / qpmin=10 / qpmax=51 / qpstep=4 / ip_ratio=1.40 / aq=1:1.00
Language : English
Default : Yes
Forced : No

Audio

ID : 2
Format : DTS
Format/Info : Digital Theater Systems
Codec ID : A_DTS
Duration : 1h 48mn
Bit rate mode : Constant
Bit rate : 1 510 Kbps
Channel(s) : 6 channels
Channel positions : Front: L C R, Side: L R, LFE
Sampling rate : 48.0 KHz
Bit depth : 24 bits
Compression mode : Lossy
Delay relative to video : 11ms
Stream size : 1.14 GiB (28%)
Language : English
Default : Yes
Forced : Yes

Text

ID : 3
Format : UTF-8
Codec ID : S_TEXT/UTF8
Codec ID/Info : UTF-8 Plain Text
Language : English
Default : Yes
Forced : No

One response to “Black Swan (2010)”

  1. Bugion says :

    Fortunately for me, haven’t seen that one yet !

Leave a Reply

Fill in your details below or click an icon to log in:

WordPress.com Logo

You are commenting using your WordPress.com account. Log Out / Change )

Twitter picture

You are commenting using your Twitter account. Log Out / Change )

Facebook photo

You are commenting using your Facebook account. Log Out / Change )

Google+ photo

You are commenting using your Google+ account. Log Out / Change )

Connecting to %s

%d bloggers like this: