Castle S04E08 720p60 HDTV X264 DIMENSION


Castle: Heartbreak Hotel

During the investigation of the murder of an Atlantic City casino owner at an abandoned warehouse, strong leads emerge for the team in both New York and Atlantic City. As Beckett and Capt. Gates work the New York leads together, Castle naturally chooses to join the detectives for the road trip to “America’s Playground,” hoping to help solve the case while throwing an impromptu bachelor party for Ryan. Richard Burgi (“Desperate Housewives”) guest stars as Charlie Turner, the slick business partner of the victim.
Castle.S04E08.720p60.HDTV.X264.DIMENSION.mkv (979.83 MB)

General

Unique ID : 225332075197303299921694639462702519145 (0xA985610D0C2E3CED8354EB2247FE1369)
Complete name : S:\Videos\Seriale\Castle\Castle.S04E08.720p60.HDTV.X264.DIMENSION.mkv
Format : Matroska
Format version : Version 2
File size : 980 MiB
Duration : 42mn 23s
Overall bit rate : 3 231 Kbps
Movie name : 吉亚.1998 by 游龙公子
Encoded date : UTC 2011-11-10 22:38:15
Writing application : mkvmerge v5.0.1 (‘Es ist Sommer’) built on Oct 9 2011 11:55:43
Writing library : libebml v1.2.2 + libmatroska v1.3.0

Video

ID : 1
Format : AVC
Format/Info : Advanced Video Codec
Format profile : High@L5.1
Format settings, CABAC : Yes
Format settings, ReFrames : 4 frames
Codec ID : V_MPEG4/ISO/AVC
Duration : 42mn 23s
Bit rate : 2 783 Kbps
Width : 1 280 pixels
Height : 720 pixels
Display aspect ratio : 16:9
Frame rate : 59.940 fps
Color space : YUV
Chroma subsampling : 4:2:0
Bit depth : 8 bits
Scan type : Progressive
Bits/(Pixel*Frame) : 0.050
Stream size : 844 MiB (86%)
Writing library : x264 core 116 r2074 2641b9e
Encoding settings : cabac=1 / ref=3 / deblock=1:-1:-1 / analyse=0x3:0x113 / me=hex / subme=7 / psy=1 / psy_rd=1.00:0.15 / mixed_ref=1 / me_range=16 / chroma_me=1 / trellis=1 / 8x8dct=1 / cqm=0 / deadzone=21,11 / fast_pskip=1 / chroma_qp_offset=-3 / threads=3 / sliced_threads=0 / nr=0 / decimate=1 / interlaced=0 / bluray_compat=0 / constrained_intra=0 / bframes=3 / b_pyramid=2 / b_adapt=1 / b_bias=0 / direct=1 / weightb=1 / open_gop=0 / weightp=2 / keyint=250 / keyint_min=25 / scenecut=40 / intra_refresh=0 / rc_lookahead=40 / rc=crf / mbtree=1 / crf=19.0 / qcomp=0.60 / qpmin=10 / qpmax=51 / qpstep=4 / ip_ratio=1.40 / aq=1:1.00
Language : English

Audio

ID : 2
Format : AC-3
Format/Info : Audio Coding 3
Mode extension : CM (complete main)
Codec ID : A_AC3
Duration : 42mn 23s
Bit rate mode : Constant
Bit rate : 384 Kbps
Channel(s) : 6 channels
Channel positions : Front: L C R, Side: L R, LFE
Sampling rate : 48.0 KHz
Bit depth : 16 bits
Compression mode : Lossy
Stream size : 116 MiB (12%)

Leave a Reply

Fill in your details below or click an icon to log in:

WordPress.com Logo

You are commenting using your WordPress.com account. Log Out / Change )

Twitter picture

You are commenting using your Twitter account. Log Out / Change )

Facebook photo

You are commenting using your Facebook account. Log Out / Change )

Google+ photo

You are commenting using your Google+ account. Log Out / Change )

Connecting to %s

%d bloggers like this: