Gia (1998)


Gia Poster

Director: 

Writers: 
Stars:
Movie based on the life of Gia Carangi, a top fashion model from the late 1970s.
Gia.Unrated.1998.BluRay.720p60.DTS.x264-CHD.mkv  ( 7.16GB 19 parts)
  1. http://www.multiupload.com/6RSU4IL753
  2. http://www.multiupload.com/S9A0SQOX8S
  3. http://www.multiupload.com/HAJ6D885Z6
  4. http://www.multiupload.com/MMYN4YOYTW
  5. http://www.multiupload.com/IRGO6PAJE9
  6. http://www.multiupload.com/0CUC11R3X6
  7. http://www.multiupload.com/JO40PLMEUA
  8. http://www.multiupload.com/942NDF85J7
  9. http://www.multiupload.com/C2F4ND1KYV
  10. http://www.multiupload.com/7HFI26J7LN
  11. http://www.multiupload.com/VOKITQJIG4
  12. http://www.multiupload.com/1MG61XE5GS
  13. http://www.multiupload.com/4PDDD4IDVW
  14. http://www.multiupload.com/LCDKIX4NHG
  15. http://www.multiupload.com/A4EQAZNRXN
  16. http://www.multiupload.com/25NA79H6XW
  17. http://www.multiupload.com/GP0VV4LV6F
  18. http://www.multiupload.com/UUBK88Q5L3
  19. http://www.multiupload.com/WHI4YO6NCS

Gia Gia Gia Gia

Cast

Cast overview, first billed only:
Angelina Jolie Angelina Jolie
Elizabeth Mitchell Elizabeth Mitchell
Eric Michael Cole Eric Michael Cole
T.J.
Kylie Travis Kylie Travis
Stephanie – Model
Louis Giambalvo Louis Giambalvo

General

Unique ID : 220649827225542576585519913082631075901 (0xA5FF9C671270080CAC7F3E699DD1B83D)
Complete name : S:\Videos\movies HD\Gia.Unrated.1998.BluRay.720p60.DTS.x264-CHD.mkv
Format : Matroska
Format version : Version 2
File size : 7.16 GiB
Duration : 2h 5mn
Overall bit rate : 8 194 Kbps
Movie name : 吉亚.1998 by 游龙公子
Encoded date : UTC 2011-11-10 16:32:28
Writing application : mkvmerge v5.0.1 (‘Es ist Sommer’) built on Oct 9 2011 11:55:43
Writing library : libebml v1.2.2 + libmatroska v1.3.0

Video

ID : 2
Format : AVC
Format/Info : Advanced Video Codec
Format profile : High@L3.2
Format settings, CABAC : Yes
Format settings, ReFrames : 4 frames
Codec ID : V_MPEG4/ISO/AVC
Duration : 2h 5mn
Bit rate : 6 521 Kbps
Width : 1 280 pixels
Height : 720 pixels
Display aspect ratio : 16:9
Frame rate : 59.940 fps
Color space : YUV
Chroma subsampling : 4:2:0
Bit depth : 8 bits
Scan type : Progressive
Bits/(Pixel*Frame) : 0.118
Stream size : 5.70 GiB (80%)
Writing library : x264 core 116 r2074 2641b9e
Encoding settings : cabac=1 / ref=2 / deblock=1:-1:-1 / analyse=0x3:0x113 / me=hex / subme=6 / psy=1 / psy_rd=1.00:0.15 / mixed_ref=1 / me_range=16 / chroma_me=1 / trellis=1 / 8x8dct=1 / cqm=0 / deadzone=21,11 / fast_pskip=1 / chroma_qp_offset=-3 / threads=2 / sliced_threads=0 / nr=0 / decimate=1 / interlaced=0 / bluray_compat=0 / constrained_intra=0 / bframes=3 / b_pyramid=2 / b_adapt=1 / b_bias=0 / direct=1 / weightb=1 / open_gop=0 / weightp=1 / keyint=250 / keyint_min=25 / scenecut=40 / intra_refresh=0 / rc_lookahead=30 / rc=crf / mbtree=1 / crf=19.0 / qcomp=0.60 / qpmin=10 / qpmax=51 / qpstep=4 / ip_ratio=1.40 / aq=1:1.00
Language : English

Audio

ID : 1
Format : DTS
Format/Info : Digital Theater Systems
Codec ID : A_DTS
Duration : 2h 5mn
Bit rate mode : Constant
Bit rate : 1 510 Kbps
Channel(s) : 6 channels
Channel positions : Front: L C R, Side: L R, LFE
Sampling rate : 48.0 KHz
Bit depth : 24 bits
Compression mode : Lossy
Stream size : 1.32 GiB (18%)
Title : English DTS-HDMA core 5.1 1509Kbps
Language : English

Leave a Reply

Fill in your details below or click an icon to log in:

WordPress.com Logo

You are commenting using your WordPress.com account. Log Out / Change )

Twitter picture

You are commenting using your Twitter account. Log Out / Change )

Facebook photo

You are commenting using your Facebook account. Log Out / Change )

Google+ photo

You are commenting using your Google+ account. Log Out / Change )

Connecting to %s

%d bloggers like this: