Gamer 2009 720p60 BluRay x264-iNFAMOUS


Gamer (200918

Gamer Poster
95 min  –  Action | Sci-Fi | Thriller   –  16 September 2009 (UK)

In a future mind-controlling game, death row convicts are forced to battle in a ‘doom’-type environment. Convict Kable, controlled by Simon, a skilled teenage gamer, must survive 30 sessions in order to be set free. Or won’t he?

Gamer.2009.720p60.BluRay.x264-iNFAMOUS.mkv (4,57GB) (Repacked)

Gamer.2009.720p60.part01.rar – 381.4 MB
Gamer.2009.720p60.part02.rar – 381.4 MB
Gamer.2009.720p60.part03.rar – 381.4 MB
Gamer.2009.720p60.part04.rar – 381.4 MB
Gamer.2009.720p60.part05.rar – 381.4 MB
Gamer.2009.720p60.part06.rar – 381.4 MB
Gamer.2009.720p60.part07.rar – 381.4 MB
Gamer.2009.720p60.part08.rar – 381.4 MB
Gamer.2009.720p60.part09.rar – 381.4 MB
Gamer.2009.720p60.part10.rar – 381.4 MB
Gamer.2009.720p60.part11.rar – 381.4 MB
Gamer.2009.720p60.part12.rar – 381.4 MB
Gamer.2009.720p60.part13.rar – 162.1 MB

http://www.imdb.com/title/tt1034032/

General

Unique ID : 245198743054224737989755118723791012151 (0xB8778F667A1A0F07867256DFA6C34137)
Complete name : S:\Videos\Wideo\Gamer\Gamer.2009.720p60.BluRay.x264-iNFAMOUS.mkv
Format : Matroska
Format version : Version 2
File size : 4.58 GiB
Duration : 1h 34mn
Overall bit rate : 6 909 Kbps
Encoded date : UTC 2011-11-09 10:30:53
Writing application : mkvmerge v5.0.1 (‘Es ist Sommer’) built on Oct 9 2011 11:55:43
Writing library : libebml v1.2.2 + libmatroska v1.3.0

Video

ID : 2
Format : AVC
Format/Info : Advanced Video Codec
Format profile : High@L3.2
Format settings, CABAC : Yes
Format settings, ReFrames : 4 frames
Codec ID : V_MPEG4/ISO/AVC
Duration : 1h 34mn
Bit rate : 5 261 Kbps
Width : 1 280 pixels
Height : 688 pixels
Display aspect ratio : 1.860
Frame rate : 59.940 fps
Color space : YUV
Chroma subsampling : 4:2:0
Bit depth : 8 bits
Scan type : Progressive
Bits/(Pixel*Frame) : 0.100
Stream size : 3.49 GiB (76%)
Writing library : x264 core 116 r2074 2641b9e
Encoding settings : cabac=1 / ref=2 / deblock=1:-1:-1 / analyse=0x3:0x113 / me=hex / subme=6 / psy=1 / psy_rd=1.00:0.15 / mixed_ref=1 / me_range=16 / chroma_me=1 / trellis=1 / 8x8dct=1 / cqm=0 / deadzone=21,11 / fast_pskip=1 / chroma_qp_offset=-3 / threads=1 / sliced_threads=0 / nr=0 / decimate=1 / interlaced=0 / bluray_compat=0 / constrained_intra=0 / bframes=3 / b_pyramid=2 / b_adapt=1 / b_bias=0 / direct=1 / weightb=1 / open_gop=0 / weightp=1 / keyint=250 / keyint_min=25 / scenecut=40 / intra_refresh=0 / rc_lookahead=30 / rc=crf / mbtree=1 / crf=18.0 / qcomp=0.60 / qpmin=10 / qpmax=51 / qpstep=4 / ip_ratio=1.40 / aq=1:1.00
Language : English

Audio

ID : 1
Format : DTS
Format/Info : Digital Theater Systems
Codec ID : A_DTS
Duration : 1h 34mn
Bit rate mode : Constant
Bit rate : 1 510 Kbps
Channel(s) : 6 channels
Channel positions : Front: L C R, Side: L R, LFE
Sampling rate : 48.0 KHz
Bit depth : 16 bits
Compression mode : Lossy
Stream size : 1.00 GiB (22%)
Language : English

Leave a Reply

Fill in your details below or click an icon to log in:

WordPress.com Logo

You are commenting using your WordPress.com account. Log Out / Change )

Twitter picture

You are commenting using your Twitter account. Log Out / Change )

Facebook photo

You are commenting using your Facebook account. Log Out / Change )

Google+ photo

You are commenting using your Google+ account. Log Out / Change )

Connecting to %s

%d bloggers like this: