Castle S04E07 720p60 HDTV X264-DIMENSION


Castle: Cops & Robbers

When Castle and Martha are taken hostage by a crew of bank robbers dressed in hospital scrubs and using classic television doctor names (Trapper John M.D., Dr. Huxtable, Dr. Quinn Medicine Woman and Dr. Doogie Howser), Beckett finds herself on the outside, desperately trying to rescue them — which proves to be even more difficult with a by-the-book hostage negotiator (guest star Dean Norris, “Breaking Bad”) watching her every move. Castle becomes the de facto leader of the hostages, which includes Barry Livingston (“My Three Sons”), and discovers that the robbery is actually a skillfully orchestrated distraction for an even more sinister plan. But with Castle stuck on the inside and Beckett on the outside, will either be able to foil the bank robbers’ plans before it is too late?

General

Unique ID : 243869765938385054066469170467976361650 (0xB7779BC506ECD53BBB81A0C8995DB6B2)
Complete name : S:\Videos\Seriale\Castle\Castle.S04E07.720p60.HDTV.X264-DIMENSION.mkv
Format : Matroska
Format version : Version 2
File size : 947 MiB
Duration : 42mn 5s
Overall bit rate : 3 145 Kbps
Encoded date : UTC 2011-11-09 17:52:25
Writing application : mkvmerge v5.0.1 (‘Es ist Sommer’) built on Oct 9 2011 11:55:43
Writing library : libebml v1.2.2 + libmatroska v1.3.0

Video

ID : 1
Format : AVC
Format/Info : Advanced Video Codec
Format profile : High@L3.2
Format settings, CABAC : Yes
Format settings, ReFrames : 4 frames
Codec ID : V_MPEG4/ISO/AVC
Duration : 42mn 5s
Bit rate : 2 698 Kbps
Width : 1 280 pixels
Height : 720 pixels
Display aspect ratio : 16:9
Frame rate : 59.940 fps
Color space : YUV
Chroma subsampling : 4:2:0
Bit depth : 8 bits
Scan type : Progressive
Bits/(Pixel*Frame) : 0.049
Stream size : 812 MiB (86%)
Writing library : x264 core 116 r2074 2641b9e
Encoding settings : cabac=1 / ref=3 / deblock=1:-1:-1 / analyse=0x3:0x113 / me=hex / subme=7 / psy=1 / psy_rd=1.00:0.15 / mixed_ref=1 / me_range=16 / chroma_me=1 / trellis=1 / 8x8dct=1 / cqm=0 / deadzone=21,11 / fast_pskip=1 / chroma_qp_offset=-3 / threads=2 / sliced_threads=0 / nr=0 / decimate=1 / interlaced=0 / bluray_compat=0 / constrained_intra=0 / bframes=3 / b_pyramid=2 / b_adapt=1 / b_bias=0 / direct=1 / weightb=1 / open_gop=0 / weightp=2 / keyint=250 / keyint_min=25 / scenecut=40 / intra_refresh=0 / rc_lookahead=40 / rc=crf / mbtree=1 / crf=19.3 / qcomp=0.60 / qpmin=10 / qpmax=51 / qpstep=4 / ip_ratio=1.40 / aq=1:1.00
Language : English

Audio

ID : 2
Format : AC-3
Format/Info : Audio Coding 3
Mode extension : CM (complete main)
Codec ID : A_AC3
Duration : 42mn 5s
Bit rate mode : Constant
Bit rate : 384 Kbps
Channel(s) : 6 channels
Channel positions : Front: L C R, Side: L R, LFE
Sampling rate : 48.0 KHz
Bit depth : 16 bits
Compression mode : Lossy
Stream size : 116 MiB (12%)
Language : English

Leave a Reply

Fill in your details below or click an icon to log in:

WordPress.com Logo

You are commenting using your WordPress.com account. Log Out / Change )

Twitter picture

You are commenting using your Twitter account. Log Out / Change )

Facebook photo

You are commenting using your Facebook account. Log Out / Change )

Google+ photo

You are commenting using your Google+ account. Log Out / Change )

Connecting to %s

%d bloggers like this: