Human Traffic [1999][Eng] DVDRip 50fps – weak quality, but it’s just for a start


Human Traffic Poster
Human Traffic (1999)18
99 min
Comedy | Drama | Music   –  4 June 1999 (UK)

Five friends spend one lost weekend in a mix of music, love and club culture.

http://www.multiupload.com/9FVLI2FLUT

http://www.imdb.com/title/tt0188674/

Director:

Justin Kerrigan

Writer:

Justin Kerrigan

info:

General

Unique ID : 185490501194844458137330910111954816200 (0x8B8C2BCAEB5F8CFB8D0AE7DD166ACCC8)
Complete name : S:\Videos\movies SD\Human Traffic [1999][Eng]DVDRip-woodster\Human Traffic 50fps.mkv
Format : Matroska
Format version : Version 2
File size : 898 MiB
Duration : 1h 35mn
Overall bit rate mode : Variable
Overall bit rate : 1 317 Kbps
Encoded date : UTC 2011-11-06 03:00:01
Writing application : mkvmerge v5.0.1 (‘Es ist Sommer’) built on Oct 9 2011 11:55:43
Writing library : libebml v1.2.2 + libmatroska v1.3.0

Video

ID : 1
Format : AVC
Format/Info : Advanced Video Codec
Format profile : High@L3.0
Format settings, CABAC : Yes
Format settings, ReFrames : 4 frames
Codec ID : V_MPEG4/ISO/AVC
Duration : 1h 35mn
Bit rate : 1 176 Kbps
Width : 592 pixels
Height : 320 pixels
Display aspect ratio : 1.850
Frame rate : 50.000 fps
Color space : YUV
Chroma subsampling : 4:2:0
Bit depth : 8 bits
Scan type : Progressive
Bits/(Pixel*Frame) : 0.124
Stream size : 802 MiB (89%)
Writing library : x264 core 116 r2074 2641b9e
Encoding settings : cabac=1 / ref=2 / deblock=1:0:0 / analyse=0x3:0x113 / me=hex / subme=6 / psy=1 / psy_rd=1.00:0.00 / mixed_ref=1 / me_range=16 / chroma_me=1 / trellis=1 / 8x8dct=1 / cqm=0 / deadzone=21,11 / fast_pskip=1 / chroma_qp_offset=-2 / threads=6 / sliced_threads=0 / nr=0 / decimate=1 / interlaced=0 / bluray_compat=0 / constrained_intra=0 / bframes=3 / b_pyramid=2 / b_adapt=1 / b_bias=0 / direct=1 / weightb=1 / open_gop=0 / weightp=1 / keyint=250 / keyint_min=25 / scenecut=40 / intra_refresh=0 / rc_lookahead=30 / rc=crf / mbtree=1 / crf=18.0 / qcomp=0.60 / qpmin=10 / qpmax=51 / qpstep=4 / ip_ratio=1.40 / aq=1:1.00
Language : English

Audio

ID : 2
Format : MPEG Audio
Format version : Version 1
Format profile : Layer 3
Mode : Joint stereo
Mode extension : MS Stereo
Codec ID : A_MPEG/L3
Codec ID/Hint : MP3
Duration : 1h 35mn
Bit rate mode : Variable
Bit rate : 115 Kbps
Nominal bit rate : 128 Kbps
Channel(s) : 2 channels
Sampling rate : 48.0 KHz
Compression mode : Lossy
Stream size : 78.3 MiB (9%)
Writing library : LAME3.97
Encoding settings : -m j -V 4 -q 2 -lowpass 17 –abr 128
Language : English

Leave a Reply

Fill in your details below or click an icon to log in:

WordPress.com Logo

You are commenting using your WordPress.com account. Log Out / Change )

Twitter picture

You are commenting using your Twitter account. Log Out / Change )

Facebook photo

You are commenting using your Facebook account. Log Out / Change )

Google+ photo

You are commenting using your Google+ account. Log Out / Change )

Connecting to %s

%d bloggers like this: