Castle S04E01 720p60 WEB-DL DD5.1 H.264-NFHD


Castle: Rise

In a riveting opening that picks up just moments after last season’s climactic finale, Detective Beckett fights for her life as Castle, plagued by guilt over his role in the events, struggles to uncover who’s behind her brutal shooting. Meanwhile, back at the precinct, Ryan and Esposito have to adjust, as Victoria “Iron” Gates becomes the precinct’s new uncompromising Captain.

http://www.tvrage.com/Castle/episodes/1065055057

General

Unique ID : 245270464763780927344657226317735659683 (0xB8855F8DB8761906A823C1C2AD6C08A3)
Complete name : S:\Videos\Seriale\Castle\Castle.S04E01.720p60.WEB-DL.DD5.1.H.264-NFHD.mkv
Format : Matroska
Format version : Version 2
File size : 729 MiB
Duration : 42mn 59s
Overall bit rate : 2 369 Kbps
Encoded date : UTC 2011-11-03 03:42:26
Writing application : mkvmerge v5.0.1 (‘Es ist Sommer’) built on Oct 9 2011 11:55:43
Writing library : libebml v1.2.2 + libmatroska v1.3.0
Attachment : Yes

Video

ID : 2
Format : AVC
Format/Info : Advanced Video Codec
Format profile : High@L3.2
Format settings, CABAC : Yes
Format settings, ReFrames : 4 frames
Codec ID : V_MPEG4/ISO/AVC
Duration : 42mn 59s
Bit rate : 1 938 Kbps
Width : 1 280 pixels
Height : 720 pixels
Display aspect ratio : 16:9
Frame rate : 59.940 fps
Color space : YUV
Chroma subsampling : 4:2:0
Bit depth : 8 bits
Scan type : Progressive
Bits/(Pixel*Frame) : 0.035
Stream size : 596 MiB (82%)
Writing library : x264 core 116 r2074 2641b9e
Encoding settings : cabac=1 / ref=3 / deblock=1:0:0 / analyse=0x3:0x113 / me=hex / subme=7 / psy=1 / psy_rd=1.00:0.00 / mixed_ref=1 / me_range=16 / chroma_me=1 / trellis=1 / 8x8dct=1 / cqm=0 / deadzone=21,11 / fast_pskip=1 / chroma_qp_offset=-2 / threads=6 / sliced_threads=0 / nr=0 / decimate=1 / interlaced=0 / bluray_compat=0 / constrained_intra=0 / bframes=3 / b_pyramid=2 / b_adapt=1 / b_bias=0 / direct=1 / weightb=1 / open_gop=0 / weightp=2 / keyint=250 / keyint_min=25 / scenecut=40 / intra_refresh=0 / rc_lookahead=40 / rc=crf / mbtree=1 / crf=20.0 / qcomp=0.60 / qpmin=10 / qpmax=51 / qpstep=4 / ip_ratio=1.40 / aq=1:1.00

Audio

ID : 1
Format : AC-3
Format/Info : Audio Coding 3
Mode extension : CM (complete main)
Codec ID : A_AC3
Duration : 42mn 59s
Bit rate mode : Constant
Bit rate : 384 Kbps
Channel(s) : 6 channels
Channel positions : Front: L C R, Side: L R, LFE
Sampling rate : 48.0 KHz
Bit depth : 16 bits
Compression mode : Lossy
Stream size : 118 MiB (16%)
Title : Dolby Digital 5.1 @ 384 kbps
Language : English

Leave a Reply

Fill in your details below or click an icon to log in:

WordPress.com Logo

You are commenting using your WordPress.com account. Log Out / Change )

Twitter picture

You are commenting using your Twitter account. Log Out / Change )

Facebook photo

You are commenting using your Facebook account. Log Out / Change )

Google+ photo

You are commenting using your Google+ account. Log Out / Change )

Connecting to %s

%d bloggers like this: